Milla 22 (2018) Webrip 1080p Subtitulado

Descargar Milla 22 (2018) Webrip 1080p Subtitulado, Mega, Google Dive. James Silva (Mark Wahlberg) es un experimentado agente de la CIA, enviado a un país sospechoso de actividad nuclear ilegal. Cuando el funcionario local, LI (Iko Uwais), llega a la embajada de los EE. UU. buscando intercambiar información sobre material radioactivo robado a cambio de su paso seguro a los EE. UU., Silva tiene la tarea de transportarlo desde el centro de una ciudad, en una peligrosa misión, hasta una pista de aterrizaje a 22 millas de distancia.



Titulo original Mile 22
Audio Ingles ACC 2.0 iTunes
Calidad: WEBDL Resolucion: 1920x800p Formato: MKV
Encoder: CinefiloCool Peso: 2.44 GiB Duracion: 1h 34m
Subtitulos: Español Latino SRT - Ingles SRT
  • No hay video embed

Milla 22 - El Escape (2018) Webrip 1080p Subtitulado.mkv
Format: Matroska
Format version: Version 4 / Version 2
File size : 2.44 GiB
Duration: 1 h 34 min
Overall bit rate: 3 706 kb/s
Movie name: CinemaniaHDD.Net
Encoded date: UTC 2018-10-25 04:38:57
Writing application : mkvmerge v25.0.0 ('Prog Noir') 64-bit
Writing library : libebml v1.3.6 + libmatroska v1.4.9

Video
ID: 1
Format: AVC
Format/Info : Advanced Video Codec
Format profile: High@L4.1
Format settings : CABAC / 5 Ref Frames
Format settings, CABAC: Yes
Format settings, RefFrames: 5 frames
Codec ID: V_MPEG4/ISO/AVC
Duration: 1 h 34 min
Bit rate: 3 500 kb/s
Width : 1 920 pixels
Height: 800 pixels
Display aspect ratio: 2.40:1
Frame rate mode : Constant
Frame rate: 25.000 FPS
Color space : YUV
Chroma subsampling: 4:2:0
Bit depth : 8 bits
Scan type : Progressive
Bits/(Pixel*Frame): 0.091
Stream size : 2.27 GiB (93%)
Title : HD1080p [Webrip]
Writing library : x264 core 155 r2893 b00bcaf
Encoding settings : cabac=1 / ref=5 / deblock=1:0:0 / analyse=0x3:0x113 / me=hex / subme=8 / psy=1 / psy_rd=1.00:0.00 / mixed_ref=1 / me_range=16 / chroma_me=1 / trellis=2 / 8x8dct=1 / cqm=0 / deadzone=21,11 / fast_pskip=1 / chroma_qp_offset=-2 / threads=25 / lookahead_threads=4 / sliced_threads=0 / nr=0 / decimate=1 / interlaced=0 / bluray_compat=0 / constrained_intra=0 / bframes=3 / b_pyramid=2 / b_adapt=1 / b_bias=0 / direct=3 / weightb=1 / open_gop=0 / weightp=2 / keyint=250 / keyint_min=25 / scenecut=40 / intra_refresh=0 / rc_lookahead=50 / rc=abr / mbtree=1 / bitrate=3500 / ratetol=1.0 / qcomp=0.60 / qpmin=0 / qpmax=69 / qpstep=4 / vbv_maxrate=62500 / vbv_bufsize=78125 / nal_hrd=none / filler=0 / ip_ratio=1.40 / aq=1:1.00
Default : Yes
Forced: No
Color range : Limited
Color primaries : BT.709
Transfer characteristics: BT.709
Matrix coefficients : BT.709

Audio
ID: 2
Format: AAC
Format/Info : Advanced Audio Codec
Format profile: LC
Codec ID: A_AAC-2
Duration: 1 h 34 min
Bit rate: 256 kb/s
Channel(s): 2 channels
Channel positions : Front: L R
Sampling rate : 48.0 kHz
Frame rate: 46.875 FPS (1024 SPF)
Compression mode: Lossy
Delay relative to video : 32 ms
Stream size : 173 MiB (7%)
Title : AAC_2.0_Web_Eng
Language: English
Default : Yes
Forced: No

Text #1
ID: 3
Format: UTF-8
Codec ID: S_TEXT/UTF8
Codec ID/Info : UTF-8 Plain Text
Duration: 1 h 26 min
Bit rate: 74 b/s
Count of elements : 1365
Stream size : 47.0 KiB (0%)
Title : Sub_Esp
Language: Spanish
Default : Yes
Forced: Yes

Text #2
ID: 4
Format: UTF-8
Codec ID: S_TEXT/UTF8
Codec ID/Info : UTF-8 Plain Text
Duration: 1 h 25 min
Bit rate: 68 b/s
Count of elements : 1358
Stream size : 42.4 KiB (0%)
Title : Sub_Eng
Language: English
Default : No
Forced: No

Download Links

CONTRASEÑA PARA DESCOMPRIMIR

APORTES NUEVOS

cinemaniahdd.com

APORTES VIEJOS

CinemaniaHD.org

COMPRA O RENUEVA TU PREMIUM DE UPLOADED DESDE EL SIGUIENTE LINK:

http://ul.to/ref/9821430

SI GUSTAS PUEDES SEGUIRNOS EN LAS REDES SOCIALES

Facebook

Twitter

Post Relacionados