Misión: Imposible 3 (2006) Full 1080p Latino

Descargar Misión: Imposible 3 (2006) Full 1080p Latino, Mega, Google Drive. Tras haber llevado a cabo diversas misiones, el agente especial Ethan Hunt (Tom Cruise) se ha retirado del servicio activo y se ha prometido con su amada Julia (Michelle Monaghan). Pero, cuando es secuestrado uno de los agentes entrenados por él, volverá de nuevo a la acción. También tendrá que enfrentarse a Owen Davian (Philip Seymour Hoffman), un individuo sin escrúpulos que trafica con armas y con información.



Titulo original Mission: Impossible III
Audio Español Latino AC3 5.1 BLURAY - Ingles DTS 5.1 BLURAY
Calidad: Full 1080p Resolucion: 1920x1080p Formato: MKV
Encoder: CinefiloCool Peso: 13.7 GiB Duracion: 2h 6m
Subtitulos: Español Latino PGS - Ingles PGS
  • No hay video embed

Mision Imposible III (2006) Full 1080p Latino.mkv
Format: Matroska
Format version: Version 4 / Version 2
File size : 13.7 GiB
Duration: 2 h 5 min
Overall bit rate: 15.7 Mb/s
Movie name: CinemaniaHDD.Net
Encoded date: UTC 2018-11-27 02:22:25
Writing application : mkvmerge v25.0.0 ('Prog Noir') 64-bit
Writing library : libebml v1.3.6 + libmatroska v1.4.9

Video
ID: 1
Format: AVC
Format/Info : Advanced Video Codec
Format profile: High@L4.1
Format settings : CABAC / 4 Ref Frames
Format settings, CABAC: Yes
Format settings, RefFrames: 4 frames
Codec ID: V_MPEG4/ISO/AVC
Duration: 2 h 5 min
Bit rate: 11.2 Mb/s
Width : 1 920 pixels
Height: 1 080 pixels
Display aspect ratio: 16:9
Frame rate mode : Constant
Frame rate: 23.976 (24000/1001) FPS
Color space : YUV
Chroma subsampling: 4:2:0
Bit depth : 8 bits
Scan type : Progressive
Bits/(Pixel*Frame): 0.224
Stream size : 9.77 GiB (71%)
Title : Full HD1080p [Bluray]
Writing library : x264 core 155 r2893 b00bcaf
Encoding settings : cabac=1 / ref=4 / deblock=1:0:0 / analyse=0x3:0x133 / me=esa / subme=10 / psy=1 / psy_rd=1.00:0.00 / mixed_ref=1 / me_range=24 / chroma_me=1 / trellis=2 / 8x8dct=1 / cqm=0 / deadzone=21,11 / fast_pskip=1 / chroma_qp_offset=-2 / threads=34 / lookahead_threads=5 / sliced_threads=0 / nr=0 / decimate=1 / interlaced=0 / bluray_compat=0 / constrained_intra=0 / bframes=8 / b_pyramid=2 / b_adapt=2 / b_bias=0 / direct=3 / weightb=1 / open_gop=0 / weightp=2 / keyint=240 / keyint_min=24 / scenecut=40 / intra_refresh=0 / rc_lookahead=60 / rc=crf / mbtree=1 / crf=20.0 / qcomp=0.60 / qpmin=0 / qpmax=69 / qpstep=4 / vbv_maxrate=62500 / vbv_bufsize=78125 / crf_max=0.0 / nal_hrd=none / filler=0 / ip_ratio=1.40 / aq=1:1.00
Default : Yes
Forced: No
Color range : Limited
Color primaries : BT.709
Transfer characteristics: BT.709
Matrix coefficients : BT.709

Audio #1
ID: 2
Format: AC-3
Format/Info : Audio Coding 3
Format settings, Endianness : Big
Codec ID: A_AC3
Duration: 2 h 5 min
Bit rate mode : Constant
Bit rate: 640 kb/s
Channel(s): 6 channels
Channel positions : Front: L C R, Side: L R, LFE
Sampling rate : 48.0 kHz
Frame rate: 31.250 FPS (1536 SPF)
Bit depth : 16 bits
Compression mode: Lossy
Stream size : 574 MiB (4%)
Title : AC3_5.1_Bluray_Esp
Language: Spanish
Service kind: Complete Main
Default : Yes
Forced: Yes

Audio #2
ID: 3
Format: DTS
Format/Info : Digital Theater Systems
Format profile: MA / Core
Mode: 16
Format settings, Endianness : Big
Codec ID: A_DTS
Duration: 2 h 5 min
Bit rate mode : Variable / Constant
Bit rate: 3 840 kb/s / 1 509 kb/s
Channel(s): 6 channels
Channel positions : Front: L C R, Side: L R, LFE
Sampling rate : 48.0 kHz
Frame rate: 93.750 FPS (512 SPF)
Bit depth : 24 bits
Compression mode: Lossless / Lossy
Stream size : 3.40 GiB (25%)
Title : DTSHD-MA_5.1_Bluray_Eng
Language: English
Default : No
Forced: No

Text #1
ID: 4
Format: PGS
Muxing mode : zlib
Codec ID: S_HDMV/PGS
Codec ID/Info : Picture based subtitle format used on BDs/HD-DVDs
Duration: 1 h 57 min
Bit rate: 27.4 kb/s
Count of elements : 2416
Stream size : 23.1 MiB (0%)
Title : Sub_Esp [PGS]
Language: Spanish
Default : No
Forced: No

Text #2
ID: 5
Format: PGS
Muxing mode : zlib
Codec ID: S_HDMV/PGS
Codec ID/Info : Picture based subtitle format used on BDs/HD-DVDs
Duration: 1 h 57 min
Bit rate: 30.8 kb/s
Count of elements : 2416
Stream size : 26.0 MiB (0%)
Title : Sub_Eng [PGS]
Language: English
Default : No
Forced: No

Menu
00:00:00.000: :Count to Ten
00:04:02.451: :Engagement Party
00:12:57.860: :Agent Lindsey Farris
00:21:18.068: :Chopper Chase
00:26:32.299: :Intelligence
00:32:56.475: :Trust and Understanding
00:39:30.493: :The Vatican
00:46:56.439: :Finding Davian
00:51:44.310: :Identity Theft
00:57:34.868: :Dangerous Cargo
01:02:08.975: :Bridge Attack
01:09:06.643: :The Tables Turn
01:18:19.236: :Shanghai
01:23:31.381: :Skyscraper
01:27:35.083: :Night Flight
01:34:08.017: :It's Complicated
01:42:43.449: :Mobile Navigator
01:51:10.831: :Point and Shoot
01:57:27.832: :Mission: Honeymoon

Download Links

CONTRASEÑA PARA DESCOMPRIMIR

APORTES NUEVOS

cinemaniahdd.com

APORTES VIEJOS

CinemaniaHD.org

COMPRA O RENUEVA TU PREMIUM DE UPLOADED DESDE EL SIGUIENTE LINK:

http://ul.to/ref/9821430

SI GUSTAS PUEDES SEGUIRNOS EN LAS REDES SOCIALES

Facebook

Twitter

Post Relacionados