Misión: Imposible – Nación secreta (2015) Full 1080p Latino

Descargar Misión: Imposible – Nación secreta (2015) Full 1080p Latino, Mega, Google Drive. Con la FMI disuelta y Ethan Hunt (Tom Cruise) abandonado a su suerte, el equipo tiene que enfrentarse contra el Sindicato, una red de agentes especiales altamente preparados y entrenados. Estos grupos están empeñados en crear un nuevo orden mundial mediante una serie de ataques terroristas cada vez más graves. Ethan reúne a su equipo y une sus fuerzas con la agente británica renegada Ilsa Faust (Rebecca Ferguson), quien puede que sea o no miembro de esta nación secreta, mientras el grupo se va enfrentando a su misión más imposible hasta la fecha… Quinta entrega de la saga Misión Imposible.



Titulo original Mission: Impossible - Rogue Nation
Audio Español Latino AC3 5.1 BLURAY - DTS-HD Master 7.1 BLURAY
Calidad: Full 1080p Resolucion: 1920x1080p Formato: MKV
Encoder: CinefiloCool Peso: 12.4 GiB Duracion: 2h 11m
Subtitulos: Español Latino PGS - Ingles PGS
  • No hay video embed

Mision Imposible V (2015) Full 1080p Latino.mkv
Format: Matroska
Format version: Version 4
File size : 12.4 GiB
Duration: 2 h 11 min
Overall bit rate mode : Variable
Overall bit rate: 13.4 Mb/s
Movie name: CinemaniaHDD.Net
Encoded date: UTC 2018-12-02 07:35:41
Writing application : mkvmerge v28.2.0 ('The Awakening') 64-bit
Writing library : libebml v1.3.6 + libmatroska v1.4.9

Video
ID: 1
Format: AVC
Format/Info : Advanced Video Codec
Format profile: High@L4.1
Format settings : CABAC / 4 Ref Frames
Format settings, CABAC: Yes
Format settings, ReFrames : 4 frames
Codec ID: V_MPEG4/ISO/AVC
Duration: 2 h 11 min
Bit rate: 7 828 kb/s
Width : 1 920 pixels
Height: 1 080 pixels
Display aspect ratio: 16:9
Frame rate mode : Constant
Frame rate: 23.976 (24000/1001) FPS
Color space : YUV
Chroma subsampling: 4:2:0
Bit depth : 8 bits
Scan type : Progressive
Bits/(Pixel*Frame): 0.157
Stream size : 7.19 GiB (58%)
Title : Full HD1080p [Bluray]
Writing library : x264 core 155 r2901 7d0ff22
Encoding settings : cabac=1 / ref=4 / deblock=1:0:0 / analyse=0x3:0x133 / me=esa / subme=10 / psy=1 / psy_rd=1.00:0.00 / mixed_ref=1 / me_range=24 / chroma_me=1 / trellis=2 / 8x8dct=1 / cqm=0 / deadzone=21,11 / fast_pskip=1 / chroma_qp_offset=-2 / threads=34 / lookahead_threads=5 / sliced_threads=0 / nr=0 / decimate=1 / interlaced=0 / bluray_compat=0 / constrained_intra=0 / bframes=8 / b_pyramid=2 / b_adapt=2 / b_bias=0 / direct=3 / weightb=1 / open_gop=0 / weightp=2 / keyint=240 / keyint_min=24 / scenecut=40 / intra_refresh=0 / rc_lookahead=60 / rc=crf / mbtree=1 / crf=20.0 / qcomp=0.60 / qpmin=0 / qpmax=69 / qpstep=4 / vbv_maxrate=62500 / vbv_bufsize=78125 / crf_max=0.0 / nal_hrd=none / filler=0 / ip_ratio=1.40 / aq=1:1.00
Default : Yes
Forced: Yes
Color range : Limited
Color primaries : BT.709
Transfer characteristics: BT.709
Matrix coefficients : BT.709

Audio #1
ID: 2
Format: AC-3
Format/Info : Audio Coding 3
Commercial name : Dolby Digital
Codec ID: A_AC3
Duration: 2 h 11 min
Bit rate mode : Constant
Bit rate: 640 kb/s
Channel(s): 6 channels
Channel layout: L R C LFE Ls Rs
Sampling rate : 48.0 kHz
Frame rate: 31.250 FPS (1536 SPF)
Bit depth : 16 bits
Compression mode: Lossy
Stream size : 602 MiB (5%)
Title : AC3_5.1_Bluray_Esp
Language: Spanish
Service kind: Complete Main
Default : Yes
Forced: Yes

Audio #2
ID: 3
Format: MLP FBA 16-ch
Format/Info : Meridian Lossless Packing FBA with 16-channel presentation
Commercial name : Dolby TrueHD with Dolby Atmos
Codec ID: A_TRUEHD
Duration: 2 h 11 min
Bit rate mode : Variable
Bit rate: 4 895 kb/s
Maximum bit rate: 8 736 kb/s
Channel(s): 8 channels
Channel layout: L R C LFE Ls Rs Lb Rb
Sampling rate : 48.0 kHz
Frame rate: 1 200.000 FPS (40 SPF)
Compression mode: Lossless
Stream size : 4.50 GiB (36%)
Title : True-HD_7.1_Bluray_Eng
Language: English
Default : No
Forced: No
Number of dynamic objects : 11
Bed channel count : 1 channel
Bed channel configuration : LFE

Text #1
ID: 4
Format: PGS
Muxing mode : zlib
Codec ID: S_HDMV/PGS
Codec ID/Info : Picture based subtitle format used on BDs/HD-DVDs
Duration: 2 h 4 min
Bit rate: 25.4 kb/s
Count of elements : 2433
Stream size : 22.6 MiB (0%)
Title : Sub_Esp [PGS]
Language: Spanish
Default : No
Forced: Yes

Text #2
ID: 5
Format: PGS
Muxing mode : zlib
Codec ID: S_HDMV/PGS
Codec ID/Info : Picture based subtitle format used on BDs/HD-DVDs
Duration: 1 h 53 min
Bit rate: 206 b/s
Count of elements : 43
Stream size : 172 KiB (0%)
Title : Sub_Forced [PGS]
Language: English
Default : No
Forced: No

Text #3
ID: 6
Format: PGS
Muxing mode : zlib
Codec ID: S_HDMV/PGS
Codec ID/Info : Picture based subtitle format used on BDs/HD-DVDs
Duration: 2 h 3 min
Bit rate: 26.9 kb/s
Count of elements : 2413
Stream size : 23.7 MiB (0%)
Title : Sub_Eng [PGS]
Language: English
Default : No
Forced: No

Menu
00:00:00.000: :Chapter 1
00:09:53.093: :Chapter 2
00:20:45.703: :Chapter 3
00:25:32.072: :Chapter 4
00:32:00.669: :Chapter 5
00:40:03.443: :Chapter 6
00:49:35.556: :Chapter 7
01:01:01.158: :Chapter 8
01:09:51.688: :Chapter 9
01:20:20.858: :Chapter 10
01:29:29.322: :Chapter 11
01:38:32.949: :Chapter 12
01:48:19.493: :Chapter 13
01:57:14.069: :Chapter 14
02:03:02.792: :Chapter 15

Download Links

CONTRASEÑA PARA DESCOMPRIMIR

APORTES NUEVOS

cinemaniahdd.com

APORTES VIEJOS

CinemaniaHD.org

COMPRA O RENUEVA TU PREMIUM DE UPLOADED DESDE EL SIGUIENTE LINK:

http://ul.to/ref/9821430

SI GUSTAS PUEDES SEGUIRNOS EN LAS REDES SOCIALES

Facebook

Twitter

Post Relacionados