Misión: Imposible – Protocolo Fantasma (2011) 1080p Latino

Descargar Misión: Imposible – Protocolo Fantasma (2011) 1080p Latino, Mega, Google Drive. Cuarta entrega de la serie cinematográfica Misión imposible. El agente Ethan Hunt, acusado de un atentado terrorista con bombas contra el Kremlin, es desautorizado junto con toda la organización, al poner en marcha el Presidente el “Protocolo Fantasma”. Abandonado a su suerte y sin recursos, el objetivo de Ethan es rehabilitar el buen nombre de su agencia e impedir un nuevo ataque. Pero Ethan emprende esta misión con un equipo formado por fugitivos, cuyos motivos personales no conoce bien.



Titulo original Mission: Impossible - Ghost Protocol
Audio Español Latino AC3 5.1 BLURAY - Ingles AC3 5.1 BLURAY
Calidad: 1080p Resolucion: 1920x804p Formato: MKV
Encoder: CinefiloCool Peso: 4.26 GiB Duracion: 2h 12m
Subtitulos: Español Latino SRT - Ingles SRT
  • No hay video embed

Mision Imposible IV (2011) 1080p Latino.mkv
Format: Matroska
Format version: Version 4 / Version 2
File size : 4.26 GiB
Duration: 2 h 12 min
Overall bit rate: 4 589 kb/s
Movie name: CinemaniaHDD.Net
Encoded date: UTC 2018-11-27 05:10:46
Writing application : mkvmerge v25.0.0 ('Prog Noir') 64-bit
Writing library : libebml v1.3.6 + libmatroska v1.4.9

Video
ID: 1
Format: AVC
Format/Info : Advanced Video Codec
Format profile: High@L4.1
Format settings : CABAC / 5 Ref Frames
Format settings, CABAC: Yes
Format settings, RefFrames: 5 frames
Codec ID: V_MPEG4/ISO/AVC
Duration: 2 h 12 min
Bit rate: 3 500 kb/s
Width : 1 920 pixels
Height: 804 pixels
Display aspect ratio: 2.40:1
Frame rate mode : Constant
Frame rate: 23.976 (24000/1001) FPS
Color space : YUV
Chroma subsampling: 4:2:0
Bit depth : 8 bits
Scan type : Progressive
Bits/(Pixel*Frame): 0.095
Stream size : 3.25 GiB (76%)
Title : HD1080p [Bluray]
Writing library : x264 core 155 r2893 b00bcaf
Encoding settings : cabac=1 / ref=5 / deblock=1:0:0 / analyse=0x3:0x133 / me=umh / subme=9 / psy=1 / psy_rd=1.00:0.00 / mixed_ref=1 / me_range=16 / chroma_me=1 / trellis=2 / 8x8dct=1 / cqm=0 / deadzone=21,11 / fast_pskip=1 / chroma_qp_offset=-2 / threads=25 / lookahead_threads=2 / sliced_threads=0 / nr=0 / decimate=1 / interlaced=0 / bluray_compat=0 / constrained_intra=0 / bframes=3 / b_pyramid=2 / b_adapt=2 / b_bias=0 / direct=3 / weightb=1 / open_gop=0 / weightp=2 / keyint=240 / keyint_min=24 / scenecut=40 / intra_refresh=0 / rc_lookahead=60 / rc=2pass / mbtree=1 / bitrate=3500 / ratetol=1.0 / qcomp=0.60 / qpmin=0 / qpmax=69 / qpstep=4 / cplxblur=20.0 / qblur=0.5 / vbv_maxrate=62500 / vbv_bufsize=78125 / nal_hrd=none / filler=0 / ip_ratio=1.40 / aq=1:1.00
Default : Yes
Forced: No
Color range : Limited
Color primaries : BT.709
Transfer characteristics: BT.709
Matrix coefficients : BT.709

Audio #1
ID: 2
Format: AC-3
Format/Info : Audio Coding 3
Format settings, Endianness : Big
Codec ID: A_AC3
Duration: 2 h 12 min
Bit rate mode : Constant
Bit rate: 640 kb/s
Channel(s): 6 channels
Channel positions : Front: L C R, Side: L R, LFE
Sampling rate : 48.0 kHz
Frame rate: 31.250 FPS (1536 SPF)
Bit depth : 16 bits
Compression mode: Lossy
Delay relative to video : -5 ms
Stream size : 609 MiB (14%)
Title : AC3_5.1_Bluray_Esp
Language: Spanish
Service kind: Complete Main
Default : Yes
Forced: Yes

Audio #2
ID: 3
Format: AC-3
Format/Info : Audio Coding 3
Format settings, Endianness : Big
Codec ID: A_AC3
Duration: 2 h 12 min
Bit rate mode : Constant
Bit rate: 448 kb/s
Channel(s): 6 channels
Channel positions : Front: L C R, Side: L R, LFE
Sampling rate : 48.0 kHz
Frame rate: 31.250 FPS (1536 SPF)
Bit depth : 16 bits
Compression mode: Lossy
Stream size : 426 MiB (10%)
Title : AC3_5.1_Bluray_Eng
Language: English
Service kind: Complete Main
Default : No
Forced: No

Text #1
ID: 4
Format: UTF-8
Codec ID: S_TEXT/UTF8
Codec ID/Info : UTF-8 Plain Text
Duration: 1 h 55 min
Bit rate: 2 b/s
Count of elements : 96
Stream size : 2.32 KiB (0%)
Title : Sub_Forzados
Language: Spanish
Default : Yes
Forced: Yes

Text #2
ID: 5
Format: UTF-8
Codec ID: S_TEXT/UTF8
Codec ID/Info : UTF-8 Plain Text
Duration: 2 h 4 min
Bit rate: 40 b/s
Count of elements : 1220
Stream size : 36.9 KiB (0%)
Title : Sub_Esp
Language: Spanish
Default : No
Forced: No

Text #3
ID: 6
Format: UTF-8
Codec ID: S_TEXT/UTF8
Codec ID/Info : UTF-8 Plain Text
Duration: 1 h 55 min
Bit rate: 2 b/s
Count of elements : 84
Stream size : 1.77 KiB (0%)
Title : Sub_Forced
Language: English
Default : No
Forced: No

Text #4
ID: 7
Format: UTF-8
Codec ID: S_TEXT/UTF8
Codec ID/Info : UTF-8 Plain Text
Duration: 2 h 2 min
Bit rate: 41 b/s
Count of elements : 1256
Stream size : 37.5 KiB (0%)
Title : Sub_Eng
Language: English
Default : No
Forced: No

Menu
00:00:00.000: :00:00:00.000
00:04:41.907: :00:04:41.907
00:11:28.897: :00:11:28.897
00:20:01.951: :00:20:01.951
00:27:35.320: :00:27:35.320
00:33:28.173: :00:33:28.173
00:38:18.087: :00:38:18.087
00:44:46.100: :00:44:46.100
00:51:37.219: :00:51:37.219
00:56:05.153: :00:56:05.153
01:02:50.183: :01:02:50.183
01:09:17.820: :01:09:17.820
01:16:32.379: :01:16:32.379
01:22:18.517: :01:22:18.517
01:31:17.055: :01:31:17.055
01:35:57.377: :01:35:57.377
01:42:49.914: :01:42:49.914
01:51:01.780: :01:51:01.780
01:58:26.391: :01:58:26.391
02:05:58.843: :02:05:58.843

Download Links

CONTRASEÑA PARA DESCOMPRIMIR

APORTES NUEVOS

cinemaniahdd.com

APORTES VIEJOS

CinemaniaHD.org

COMPRA O RENUEVA TU PREMIUM DE UPLOADED DESDE EL SIGUIENTE LINK:

http://ul.to/ref/9821430

SI GUSTAS PUEDES SEGUIRNOS EN LAS REDES SOCIALES

Facebook

Twitter

Post Relacionados