Misión: Imposible – Protocolo Fantasma (2011) Full 1080p Latino

Descargar Misión: Imposible – Protocolo Fantasma (2011) Full 1080p Latino, Mega, google Drive. Cuarta entrega de la serie cinematográfica Misión imposible. El agente Ethan Hunt, acusado de un atentado terrorista con bombas contra el Kremlin, es desautorizado junto con toda la organización, al poner en marcha el Presidente el “Protocolo Fantasma”. Abandonado a su suerte y sin recursos, el objetivo de Ethan es rehabilitar el buen nombre de su agencia e impedir un nuevo ataque. Pero Ethan emprende esta misión con un equipo formado por fugitivos, cuyos motivos personales no conoce bien.



Titulo original Mission: Impossible - Ghost Protocol
Audio Español Latino AC3 5.1 BLURAY - DTS-HD Master 7.1 BLURAY
Calidad: Full 1080p Resolucion: 1920x1080p Formato: MKV
Encoder: CinefiloCool Peso: 9.55 GiB Duracion: 2h 12m
Subtitulos: Español Latino PGS - Ingles PGS
  • No hay video embed

Mision Imposible IV (2011) Full 1080p Latino.mkv
Format: Matroska
Format version: Version 4 / Version 2
File size : 9.55 GiB
Duration: 2 h 12 min
Overall bit rate mode : Variable
Overall bit rate: 10.3 Mb/s
Movie name: CinemaniaHDD.Net
Encoded date: UTC 2018-11-27 05:39:40
Writing application : mkvmerge v25.0.0 ('Prog Noir') 64-bit
Writing library : libebml v1.3.6 + libmatroska v1.4.9

Video
ID: 1
Format: AVC
Format/Info : Advanced Video Codec
Format profile: High@L4.1
Format settings : CABAC / 4 Ref Frames
Format settings, CABAC: Yes
Format settings, RefFrames: 4 frames
Codec ID: V_MPEG4/ISO/AVC
Duration: 2 h 12 min
Bit rate: 5 076 kb/s
Width : 1 920 pixels
Height: 1 080 pixels
Display aspect ratio: 16:9
Frame rate mode : Constant
Frame rate: 23.976 (24000/1001) FPS
Color space : YUV
Chroma subsampling: 4:2:0
Bit depth : 8 bits
Scan type : Progressive
Bits/(Pixel*Frame): 0.102
Stream size : 4.71 GiB (49%)
Title : Full HD1080p [Bluray]
Writing library : x264 core 155 r2893 b00bcaf
Encoding settings : cabac=1 / ref=4 / deblock=1:0:0 / analyse=0x3:0x133 / me=esa / subme=10 / psy=1 / psy_rd=1.00:0.00 / mixed_ref=1 / me_range=24 / chroma_me=1 / trellis=2 / 8x8dct=1 / cqm=0 / deadzone=21,11 / fast_pskip=1 / chroma_qp_offset=-2 / threads=34 / lookahead_threads=5 / sliced_threads=0 / nr=0 / decimate=1 / interlaced=0 / bluray_compat=0 / constrained_intra=0 / bframes=8 / b_pyramid=2 / b_adapt=2 / b_bias=0 / direct=3 / weightb=1 / open_gop=0 / weightp=2 / keyint=240 / keyint_min=24 / scenecut=40 / intra_refresh=0 / rc_lookahead=60 / rc=crf / mbtree=1 / crf=20.0 / qcomp=0.60 / qpmin=0 / qpmax=69 / qpstep=4 / vbv_maxrate=62500 / vbv_bufsize=78125 / crf_max=0.0 / nal_hrd=none / filler=0 / ip_ratio=1.40 / aq=1:1.00
Default : Yes
Forced: No
Color range : Limited
Color primaries : BT.709
Transfer characteristics: BT.709
Matrix coefficients : BT.709

Audio #1
ID: 2
Format: AC-3
Format/Info : Audio Coding 3
Format settings, Endianness : Big
Codec ID: A_AC3
Duration: 2 h 12 min
Bit rate mode : Constant
Bit rate: 640 kb/s
Channel(s): 6 channels
Channel positions : Front: L C R, Side: L R, LFE
Sampling rate : 48.0 kHz
Frame rate: 31.250 FPS (1536 SPF)
Bit depth : 16 bits
Compression mode: Lossy
Stream size : 609 MiB (6%)
Title : AC3_5.1_Bluray_Esp
Language: Spanish
Service kind: Complete Main
Default : Yes
Forced: Yes

Audio #2
ID: 3
Format: TrueHD
Codec ID: A_TRUEHD
Duration: 2 h 12 min
Bit rate mode : Variable
Bit rate: 4 492 kb/s
Maximum bit rate: 6 759 kb/s
Channel(s): 8 channels
Channel positions : Front: L C R, Side: L R, Back: L R, LFE
Sampling rate : 48.0 kHz
Frame rate: 1 200.000 FPS (40 SPF)
Compression mode: Lossless
Stream size : 4.17 GiB (44%)
Title : TrueHD_7.1_Bluray_Eng
Language: English
Default : No
Forced: No

Text #1
ID: 4
Format: PGS
Muxing mode : zlib
Codec ID: S_HDMV/PGS
Codec ID/Info : Picture based subtitle format used on BDs/HD-DVDs
Duration: 1 h 55 min
Bit rate: 1 014 b/s
Count of elements : 192
Stream size : 856 KiB (0%)
Title : Sub_Forzados [PGS]
Language: Spanish
Default : No
Forced: No

Text #2
ID: 5
Format: PGS
Muxing mode : zlib
Codec ID: S_HDMV/PGS
Codec ID/Info : Picture based subtitle format used on BDs/HD-DVDs
Duration: 2 h 4 min
Bit rate: 14.7 kb/s
Count of elements : 2452
Stream size : 13.0 MiB (0%)
Title : Sub_Esp [PGS]
Language: Spanish
Default : No
Forced: No

Text #3
ID: 6
Format: PGS
Muxing mode : zlib
Codec ID: S_HDMV/PGS
Codec ID/Info : Picture based subtitle format used on BDs/HD-DVDs
Duration: 1 h 55 min
Bit rate: 879 b/s
Count of elements : 173
Stream size : 742 KiB (0%)
Title : Sub_Forced [PGS]
Language: English
Default : No
Forced: No

Text #4
ID: 7
Format: PGS
Muxing mode : zlib
Codec ID: S_HDMV/PGS
Codec ID/Info : Picture based subtitle format used on BDs/HD-DVDs
Duration: 2 h 2 min
Bit rate: 16.2 kb/s
Count of elements : 2537
Stream size : 14.3 MiB (0%)
Title : Sub_Eng [PGS]
Language: English
Default : No
Forced: No

Menu
00:00:00.000: :00:00:00.000
00:04:41.907: :00:04:41.907
00:11:28.897: :00:11:28.897
00:20:01.951: :00:20:01.951
00:27:35.320: :00:27:35.320
00:33:28.173: :00:33:28.173
00:38:18.087: :00:38:18.087
00:44:46.100: :00:44:46.100
00:51:37.219: :00:51:37.219
00:56:05.153: :00:56:05.153
01:02:50.183: :01:02:50.183
01:09:17.820: :01:09:17.820
01:16:32.379: :01:16:32.379
01:22:18.517: :01:22:18.517
01:31:17.055: :01:31:17.055
01:35:57.377: :01:35:57.377
01:42:49.914: :01:42:49.914
01:51:01.780: :01:51:01.780
01:58:26.391: :01:58:26.391
02:05:58.843: :02:05:58.843

Download Links

CONTRASEÑA PARA DESCOMPRIMIR

APORTES NUEVOS

cinemaniahdd.com

APORTES VIEJOS

CinemaniaHD.org

COMPRA O RENUEVA TU PREMIUM DE UPLOADED DESDE EL SIGUIENTE LINK:

http://ul.to/ref/9821430

SI GUSTAS PUEDES SEGUIRNOS EN LAS REDES SOCIALES

Facebook

Twitter

Post Relacionados