Mistrust (2018) AMZN Web-DL 1080p Latino

Descargar Mistrust (2018) AMZN Web-DL 1080p Latino, Mega, Google Drive, Torrent. Al no tener compromisos y nunca ser vulnerable, Veronica disfruta de ser una amante. Se da cuenta de que su mejor amigo tiene la llave de su corazón y es el único capaz de extraer sus emociones.



Titulo Original Mistrust
Año 2018-06-01
Duracion 1h 30m
Director
Reparto , , ,
Productora
Genero
Titulo original Mistrust
Audio Español Latino AC3 2.0 Capturado- Ingles AC3 5.1 AMAZON
Calidad: WEBDL Resolucion: 1920x1080p Formato: MKV
Encoder: NTG Peso: 6.62 GiB Duracion: 1h 30m
Subtitulos: No
  • No hay video embed

Mistrust (2018) AMZN Web-DL 1080p Latino.mkv
Format: Matroska
Format version: Version 4
File size : 6.62 GiB
Duration: 1 h 30 min
Overall bit rate: 10.5 Mb/s
Movie name: CinemaniaHDD.Net
Encoded date: UTC 2018-12-17 05:54:32
Writing application : mkvmerge v28.2.0 ('The Awakening') 64-bit
Writing library : libebml v1.3.6 + libmatroska v1.4.9

Video
ID: 1
Format: AVC
Format/Info : Advanced Video Codec
Format profile: High@L4
Format settings : CABAC / 4 Ref Frames
Format settings, CABAC: Yes
Format settings, ReFrames : 4 frames
Codec ID: V_MPEG4/ISO/AVC
Duration: 1 h 30 min
Bit rate: 9 610 kb/s
Width : 1 920 pixels
Height: 1 080 pixels
Display aspect ratio: 16:9
Frame rate mode : Constant
Frame rate: 23.976 (24000/1001) FPS
Color space : YUV
Chroma subsampling: 4:2:0
Bit depth : 8 bits
Scan type : Progressive
Bits/(Pixel*Frame): 0.193
Stream size : 6.06 GiB (91%)
Title : HD1080p [AMZN]
Default : Yes
Forced: No
Color range : Limited
Color primaries : BT.709
Transfer characteristics: BT.709
Matrix coefficients : BT.709

Audio #1
ID: 2
Format: AC-3
Format/Info : Audio Coding 3
Commercial name : Dolby Digital
Codec ID: A_AC3
Duration: 1 h 30 min
Bit rate mode : Constant
Bit rate: 256 kb/s
Channel(s): 2 channels
Channel layout: L R
Sampling rate : 48.0 kHz
Frame rate: 31.250 FPS (1536 SPF)
Bit depth : 16 bits
Compression mode: Lossy
Stream size : 165 MiB (2%)
Title : AC3_2.0_Captura_Esp
Language: Spanish
Service kind: Complete Main
Default : Yes
Forced: Yes

Audio #2
ID: 3
Format: E-AC-3
Format/Info : Enhanced AC-3
Commercial name : Dolby Digital Plus
Codec ID: A_EAC3
Duration: 1 h 30 min
Bit rate mode : Constant
Bit rate: 640 kb/s
Channel(s): 6 channels
Channel layout: L R C LFE Ls Rs
Sampling rate : 48.0 kHz
Frame rate: 31.250 FPS (1536 SPF)
Compression mode: Lossy
Stream size : 413 MiB (6%)
Title : E-AC3_5.1_AMZN_Eng
Language: English
Service kind: Complete Main
Default : No
Forced: No

Text
ID: 4
Format: UTF-8
Codec ID: S_TEXT/UTF8
Codec ID/Info : UTF-8 Plain Text
Duration: 1 h 30 min
Bit rate: 69 b/s
Count of elements : 1529
Stream size : 46.1 KiB (0%)
Title : Sub_Eng
Language: English
Default : No
Forced: No

Download Links

CONTRASEÑA PARA DESCOMPRIMIR

APORTES NUEVOS

cinemaniahdd.com

APORTES VIEJOS

CinemaniaHD.org

COMPRA O RENUEVA TU PREMIUM DE UPLOADED DESDE EL SIGUIENTE LINK:

http://ul.to/ref/9821430

SI GUSTAS PUEDES SEGUIRNOS EN LAS REDES SOCIALES

Facebook

Twitter

Post Relacionados