Most Likely to Murder (2018) Web-DL AMZN 1080p Latino

Most Likely to Murder (2018) Web-DL AMZN 1080p Latino; Mega, Google Drive. Billy, el que fuera el chico más popular del instituto, regresa a su ciudad natal 10 años después para descubrir que ya no es guay y la chica por la que aún tiene sentimientos ahora está saliendo con el ex-marginado del instituto. Cuando la madre del marginado muere bajo misteriosas circunstancias, Billy se obsesiona con probar que realmente fue asesinada por su hijo.
Latino AC3 2.0 Itunes – Ingles e-AC3 5.1 Amazon



Titulo Original Most Likely to Murder
Año 2018-03-12
Duracion 1h 39m
Director
Reparto , , , , , , , , , ,
Productora
Genero
Titulo original Most Likely to Murder
Audio Se especifica abajo de la Sinopsis
Calidad: WEBDL Resolucion: 1920x816p Formato: MKV
Encoder: NTG Peso: 5.01 GiB Duracion: 1h 39m
Subtitulos: Español Latino SRT - Ingles SRT
  • No hay video embed

Most Likely to Murder (2018) WebDL AMZN 1080p Latino.mkv
Format: Matroska
Format version: Version 4 / Version 2
File size : 5.01 GiB
Duration: 1 h 39 min
Overall bit rate mode : Variable
Overall bit rate: 7 243 kb/s
Movie name: CinemaniaHDD.Net
Encoded date: UTC 2018-10-10 00:44:13
Writing application : mkvmerge v25.0.0 ('Prog Noir') 64-bit
Writing library : libebml v1.3.6 + libmatroska v1.4.9

Video
ID: 1
Format: AVC
Format/Info : Advanced Video Codec
Format profile: High@L4
Format settings : CABAC / 4 Ref Frames
Format settings, CABAC: Yes
Format settings, RefFrames: 4 frames
Codec ID: V_MPEG4/ISO/AVC
Duration: 1 h 39 min
Bit rate mode : Variable
Bit rate: 6 344 kb/s
Maximum bit rate: 15.0 Mb/s
Width : 1 920 pixels
Height: 816 pixels
Display aspect ratio: 2.35:1
Frame rate mode : Constant
Frame rate: 23.976 (24000/1001) FPS
Color space : YUV
Chroma subsampling: 4:2:0
Bit depth : 8 bits
Scan type : Progressive
Bits/(Pixel*Frame): 0.169
Stream size : 4.39 GiB (88%)
Title : HD1080p [Web-DL]
Default : Yes
Forced: No
Color range : Limited
Color primaries : BT.709
Transfer characteristics: BT.709
Matrix coefficients : BT.709

Audio #1
ID: 2
Format: AC-3
Format/Info : Audio Coding 3
Format settings, Endianness : Big
Codec ID: A_AC3
Duration: 1 h 39 min
Bit rate mode : Constant
Bit rate: 256 kb/s
Channel(s): 2 channels
Channel positions : Front: L R
Sampling rate : 48.0 kHz
Frame rate: 31.250 FPS (1536 SPF)
Bit depth : 16 bits
Compression mode: Lossy
Stream size : 181 MiB (4%)
Title : AC3_2.0_Itunes_Esp
Language: Spanish
Service kind: Complete Main
Default : Yes
Forced: No

Audio #2
ID: 3
Format: E-AC-3
Format/Info : Enhanced Audio Coding 3
Format settings, Endianness : Big
Codec ID: A_EAC3
Duration: 1 h 39 min
Bit rate mode : Constant
Bit rate: 640 kb/s
Channel(s): 6 channels
Channel positions : Front: L C R, Side: L R, LFE
Sampling rate : 48.0 kHz
Frame rate: 187.500 FPS (256 SPF)
Compression mode: Lossy
Stream size : 453 MiB (9%)
Title : e-AC3_5.1_AMZN_Eng
Language: English
Service kind: Complete Main
Default : No
Forced: No

Text #1
ID: 4
Format: UTF-8
Codec ID: S_TEXT/UTF8
Codec ID/Info : UTF-8 Plain Text
Duration: 1 h 35 min
Bit rate: 0 b/s
Count of elements : 13
Stream size : 276 Bytes (0%)
Title : Sub_Forzados
Language: Spanish
Default : Yes
Forced: Yes

Text #2
ID: 5
Format: UTF-8
Codec ID: S_TEXT/UTF8
Codec ID/Info : UTF-8 Plain Text
Duration: 1 h 37 min
Bit rate: 54 b/s
Count of elements : 1209
Stream size : 39.1 KiB (0%)
Title : Sub_Esp
Language: Spanish
Default : No
Forced: No

Text #3
ID: 6
Format: UTF-8
Codec ID: S_TEXT/UTF8
Codec ID/Info : UTF-8 Plain Text
Duration: 1 h 37 min
Bit rate: 74 b/s
Count of elements : 1577
Stream size : 53.5 KiB (0%)
Title : Sub_Eng
Language: English
Default : No
Forced: No

Download Links

CONTRASEÑA PARA DESCOMPRIMIR

APORTES NUEVOS

cinemaniahdd.com

APORTES VIEJOS

CinemaniaHD.org

COMPRA O RENUEVA TU PREMIUM DE UPLOADED DESDE EL SIGUIENTE LINK:

http://ul.to/ref/9821430

SI GUSTAS PUEDES SEGUIRNOS EN LAS REDES SOCIALES

Facebook

Twitter

Post Relacionados