Moulin Rouge (1952) Full 1080p Subtitulado

París, finales del siglo XIX. El pintor impresionista Toulouse-Lautrec, miembro de una familia aristocrática francesa, se apasiona por la vida de los bajos fondos parisinos y visita con frecuencia los cabarets, el Moulin Rouge, el Lapin Agile, el Chat Noir, etc. Para muchos de ellos pintará carteles; también pintará cuadros con bailarinas de cabaret como modelos.

 

 
Ingles: DTS 2.0 Bluray



Titulo original Moulin Rouge
Audio Se especifica abajo de la Sinopsis
Calidad: Full 1080p Resolucion: 1920x1080p Formato: MKV
Encoder: Dracarys Peso: 7.96 GiB Duracion: 2h 3m
Subtitulos: Español Latino PGS - Ingles PGS
  • No hay video embed

Format                                   : Matroska
Format version                           : Version 4 / Version 2
File size                                : 7.96 GiB
Duration                                 : 1 h 58 min
Overall bit rate                         : 9 579 kb/s
Movie name                               : CinemaniaHDD.net
Encoded date                             : UTC 2018-10-11 16:24:11 / UTC 2018-10-11T06:08:10Z
Writing application                      : mkvmerge v15.0.0 ('Duel with the Devil') 64-bit
Writing library                          : libebml v1.3.5 + libmatroska v1.4.5 / Lavf57.7.2

Video
ID                                       : 1
Format                                   : AVC
Format/Info                              : Advanced Video Codec
Format profile                           : High@L4.1
Format settings                          : CABAC / 4 Ref Frames
Format settings, CABAC                   : Yes
Format settings, RefFrames               : 4 frames
Codec ID                                 : V_MPEG4/ISO/AVC
Duration                                 : 1 h 58 min
Bit rate                                 : 7 879 kb/s
Width                                    : 1 920 pixels
Height                                   : 1 080 pixels
Display aspect ratio                     : 16:9
Frame rate mode                          : Constant
Frame rate                               : 23.976 (24000/1001) FPS
Color space                              : YUV
Chroma subsampling                       : 4:2:0
Bit depth                                : 8 bits
Scan type                                : Progressive
Bits/(Pixel*Frame)                       : 0.158
Stream size                              : 6.54 GiB (82%)
Writing library                          : x264 core 148 r2708 86b7198
Encoding settings                        : cabac=1 / ref=4 / deblock=1:0:0 / analyse=0x3:0x133 / me=esa / subme=10 / psy=1 / psy_rd=1.00:0.00 / mixed_ref=1 / me_range=24 / chroma_me=1 / trellis=2 / 8x8dct=1 / cqm=0 / deadzone=21,11 / fast_pskip=1 / chroma_qp_offset=-2 / threads=34 / lookahead_threads=5 / sliced_threads=0 / nr=0 / decimate=1 / interlaced=0 / bluray_compat=0 / constrained_intra=0 / bframes=8 / b_pyramid=2 / b_adapt=2 / b_bias=0 / direct=3 / weightb=1 / open_gop=0 / weightp=2 / keyint=240 / keyint_min=24 / scenecut=40 / intra_refresh=0 / rc_lookahead=60 / rc=crf / mbtree=1 / crf=20.0 / qcomp=0.60 / qpmin=0 / qpmax=69 / qpstep=4 / vbv_maxrate=62500 / vbv_bufsize=78125 / crf_max=0.0 / nal_hrd=none / filler=0 / ip_ratio=1.40 / aq=1:1.00
Language                                 : English
Default                                  : Yes
Forced                                   : No
Color range                              : Limited
Color primaries                          : BT.709
Transfer characteristics                 : BT.709
Matrix coefficients                      : BT.709
Statistics Tags Issue                    : mkvmerge v15.0.0 ('Duel with the Devil') 64-bit 2018-10-11 16:24:11 / mkvmerge v15.0.0 ('Duel with the Devil') 64-bit 2018-10-11 16:24:11 / UTC 2018-10-11T06:08:10Z
FromStats_BitRate                        : 8054509
FromStats_Duration                       : 01:58:54.878000000
FromStats_FrameCount                     : 171066
FromStats_StreamSize                     : 7183492580

Audio
ID                                       : 2
Format                                   : DTS
Format/Info                              : Digital Theater Systems
Mode                                     : 16
Format settings, Endianness              : Big
Codec ID                                 : A_DTS
Duration                                 : 1 h 58 min
Bit rate mode                            : Constant
Bit rate                                 : 1 509 kb/s
Channel(s)                               : 2 channels
Channel positions                        : Front: L R
Sampling rate                            : 48.0 kHz
Frame rate                               : 93.750 FPS (512 SPF)
Bit depth                                : 16 bits
Compression mode                         : Lossy
Stream size                              : 1.25 GiB (16%)
Language                                 : English
Default                                  : Yes
Forced                                   : No
Statistics Tags Issue                    : mkvmerge v15.0.0 ('Duel with the Devil') 64-bit 2018-10-11 16:24:11 / mkvmerge v15.0.0 ('Duel with the Devil') 64-bit 2018-10-11 16:24:11 / UTC 2018-10-11T06:08:10Z
FromStats_BitRate                        : 1509000
FromStats_Duration                       : 01:58:54.912000000
FromStats_FrameCount                     : 668898
FromStats_StreamSize                     : 1345822776

Text #1
ID                                       : 3
Format                                   : PGS
Muxing mode                              : zlib
Codec ID                                 : S_HDMV/PGS
Codec ID/Info                            : Picture based subtitle format used on BDs/HD-DVDs
Language                                 : Spanish
Default                                  : No
Forced                                   : No
Statistics Tags Issue                    : mkvmerge v15.0.0 ('Duel with the Devil') 64-bit 2018-10-11 16:24:11 / mkvmerge v15.0.0 ('Duel with the Devil') 64-bit 2018-10-11 16:24:11 / UTC 2018-10-11T06:08:10Z
FromStats_BitRate                        : 34478
FromStats_Duration                       : 01:56:25.604000000
FromStats_FrameCount                     : 2508
FromStats_StreamSize                     : 30106737

Text #2
ID                                       : 4
Format                                   : PGS
Muxing mode                              : zlib
Codec ID                                 : S_HDMV/PGS
Codec ID/Info                            : Picture based subtitle format used on BDs/HD-DVDs
Title                                    : Forzados
Language                                 : Spanish
Default                                  : Yes
Forced                                   : Yes
Statistics Tags Issue                    : mkvmerge v15.0.0 ('Duel with the Devil') 64-bit 2018-10-11 16:24:11 / mkvmerge v15.0.0 ('Duel with the Devil') 64-bit 2018-10-11 16:24:11 / UTC 2018-10-11T06:08:10Z
FromStats_BitRate                        : 568
FromStats_Duration                       : 00:12:27.330000000
FromStats_FrameCount                     : 4
FromStats_StreamSize                     : 53109

Text #3
ID                                       : 5
Format                                   : PGS
Muxing mode                              : zlib
Codec ID                                 : S_HDMV/PGS
Codec ID/Info                            : Picture based subtitle format used on BDs/HD-DVDs
Language                                 : English
Default                                  : No
Forced                                   : No
Statistics Tags Issue                    : mkvmerge v15.0.0 ('Duel with the Devil') 64-bit 2018-10-11 16:24:11 / mkvmerge v15.0.0 ('Duel with the Devil') 64-bit 2018-10-11 16:24:11 / UTC 2018-10-11T06:08:10Z
FromStats_BitRate                        : 68414
FromStats_Duration                       : 00:00:00.917000000
FromStats_FrameCount                     : 2
FromStats_StreamSize                     : 7842

Menu
00:00:00.000                             : :Chapter 1
00:21:38.756                             : :Chapter 2
00:38:49.327                             : :Chapter 3
01:13:57.350                             : :Chapter 4
01:38:37.995                             : :Chapter 5
01:58:45.910                             : :Chapter 6

 

Download Links

CONTRASEÑA PARA DESCOMPRIMIR

APORTES NUEVOS

cinemaniahdd.com

APORTES VIEJOS

CinemaniaHD.org

COMPRA O RENUEVA TU PREMIUM DE UPLOADED DESDE EL SIGUIENTE LINK:

http://ul.to/ref/9821430

SI GUSTAS PUEDES SEGUIRNOS EN LAS REDES SOCIALES

Facebook

Twitter

Post Relacionados