My Friend Dahmer (2017) 1080p Latino

My Friend Dahmer (2017) 1080p Latino; Mega, Google Drive. Jeff Dahmer es un adolescente fuera de lugar luchando para sobrevivir a la escuela secundaria con una vida familiar en ruinas. Recoge animales atropellados, se fija en un corredor de barrio, y se enfrenta a su inestable madre y su bien intencionado padre. Pronto comienza a portarse mal en el instituto, y sus gamberradas estúpidas ganan adeptos hasta crear una banda llamada The Dahmer Fan Club, dirigida por Derf Backderf . Pero esta camaradería no puede ocultar su creciente depravación. Al acercarse a la graduación, Jeff se mueve en espiral hacia la pérdida de control, acercándose cada vez más a la locura.



Titulo Original My Friend Dahmer
Año 2017-11-03
Duracion 1h 47m
Director
Reparto , , , , , , , , , , , , ,
Productora
Genero
Titulo original My Friend Dahmer
Audio Español Latino AC3 2.0 Capturado - Ingles AC3 5.1 BLURAY
Calidad: 1080p Resolucion: 1920x800p Formato:
Encoder: chesse92 Peso: 3.11 GiB Duracion: 1h 47m
Subtitulos: Español Latino SRT - Ingles SRT
  • No hay video embed

My Friend Dahmer (2017) 1080p Latino.mkv
Format: Matroska
Format version: Version 4 / Version 2
File size : 3.11 GiB
Duration: 1 h 47 min
Overall bit rate: 4 149 kb/s
Movie name: CinemaniaHDD.Net
Encoded date: UTC 2018-10-11 01:47:11 / UTC 2018-10-10T22:44:02Z
Writing application : mkvmerge v25.0.0 ('Prog Noir') 64-bit
Writing library : libebml v1.3.6 + libmatroska v1.4.9 / Lavf57.7.2

Video
ID: 1
Format: AVC
Format/Info : Advanced Video Codec
Format profile: High@L4.1
Format settings : CABAC / 5 Ref Frames
Format settings, CABAC: Yes
Format settings, RefFrames: 5 frames
Codec ID: V_MPEG4/ISO/AVC
Duration: 1 h 47 min
Bit rate: 3 500 kb/s
Width : 1 920 pixels
Height: 800 pixels
Display aspect ratio: 2.40:1
Frame rate mode : Constant
Frame rate: 23.976 (24000/1001) FPS
Color space : YUV
Chroma subsampling: 4:2:0
Bit depth : 8 bits
Scan type : Progressive
Bits/(Pixel*Frame): 0.095
Stream size : 2.52 GiB (81%)
Title : HD1080p [Bluray]
Writing library : x264 core 155 r2893 b00bcaf
Encoding settings : cabac=1 / ref=5 / deblock=1:0:0 / analyse=0x3:0x113 / me=hex / subme=8 / psy=1 / psy_rd=1.00:0.00 / mixed_ref=1 / me_range=16 / chroma_me=1 / trellis=2 / 8x8dct=1 / cqm=0 / deadzone=21,11 / fast_pskip=1 / chroma_qp_offset=-2 / threads=25 / lookahead_threads=4 / sliced_threads=0 / nr=0 / decimate=1 / interlaced=0 / bluray_compat=0 / constrained_intra=0 / bframes=3 / b_pyramid=2 / b_adapt=1 / b_bias=0 / direct=3 / weightb=1 / open_gop=0 / weightp=2 / keyint=240 / keyint_min=24 / scenecut=40 / intra_refresh=0 / rc_lookahead=50 / rc=abr / mbtree=1 / bitrate=3500 / ratetol=1.0 / qcomp=0.60 / qpmin=0 / qpmax=69 / qpstep=4 / vbv_maxrate=62500 / vbv_bufsize=78125 / nal_hrd=none / filler=0 / ip_ratio=1.40 / aq=1:1.00
Default : Yes
Forced: No
Color range : Limited
Color primaries : BT.709
Transfer characteristics: BT.709
Matrix coefficients : BT.709
Statistics Tags Issue : mkvmerge v25.0.0 ('Prog Noir') 64-bit 2018-10-11 01:47:11 / mkvmerge v25.0.0 ('Prog Noir') 64-bit 2018-10-11 01:47:11 / UTC 2018-10-10T22:44:02Z
FromStats_BitRate : 3442627
FromStats_Duration: 01:47:28.734000000
FromStats_FrameCount: 154615
FromStats_StreamSize: 2775073362

Audio #1
ID: 2
Format: AC-3
Format/Info : Audio Coding 3
Format settings, Endianness : Big
Codec ID: A_AC3
Duration: 1 h 47 min
Bit rate mode : Constant
Bit rate: 256 kb/s
Channel(s): 2 channels
Channel positions : Front: L R
Sampling rate : 48.0 kHz
Frame rate: 31.250 FPS (1536 SPF)
Bit depth : 16 bits
Compression mode: Lossy
Delay relative to video : -5 ms
Stream size : 197 MiB (6%)
Title : AC3_2.0_Capturado_Esp
Language: Spanish
Service kind: Complete Main
Default : Yes
Forced: No
Statistics Tags Issue : mkvmerge v25.0.0 ('Prog Noir') 64-bit 2018-10-11 01:47:11 / mkvmerge v25.0.0 ('Prog Noir') 64-bit 2018-10-11 01:47:11 / UTC 2018-10-10T22:44:02Z
FromStats_BitRate : 256000
FromStats_Duration: 01:47:28.800000000
FromStats_FrameCount: 201525
FromStats_StreamSize: 206361600

Audio #2
ID: 3
Format: AC-3
Format/Info : Audio Coding 3
Format settings, Endianness : Big
Codec ID: A_AC3
Duration: 1 h 47 min
Bit rate mode : Constant
Bit rate: 448 kb/s
Channel(s): 6 channels
Channel positions : Front: L C R, Side: L R, LFE
Sampling rate : 48.0 kHz
Frame rate: 31.250 FPS (1536 SPF)
Bit depth : 16 bits
Compression mode: Lossy
Stream size : 344 MiB (11%)
Title : AC3_5.1_Bluray_Eng
Language: English
Service kind: Complete Main
Default : No
Forced: No
Statistics Tags Issue : mkvmerge v25.0.0 ('Prog Noir') 64-bit 2018-10-11 01:47:11 / mkvmerge v25.0.0 ('Prog Noir') 64-bit 2018-10-11 01:47:11 / UTC 2018-10-10T22:44:02Z
FromStats_BitRate : 448000
FromStats_Duration: 01:47:28.768000000
FromStats_FrameCount: 201524
FromStats_StreamSize: 361131008

Text #1
ID: 4
Format: UTF-8
Codec ID: S_TEXT/UTF8
Codec ID/Info : UTF-8 Plain Text
Title : Sub_Esp
Language: Spanish
Default : Yes
Forced: No
Statistics Tags Issue : mkvmerge v25.0.0 ('Prog Noir') 64-bit 2018-10-11 01:47:11 / mkvmerge v25.0.0 ('Prog Noir') 64-bit 2018-10-11 01:47:11 / UTC 2018-10-10T22:44:02Z
FromStats_BitRate : 51
FromStats_Duration: 01:40:39.807000000
FromStats_FrameCount: 1520
FromStats_StreamSize: 39074

Text #2
ID: 5
Format: UTF-8
Codec ID: S_TEXT/UTF8
Codec ID/Info : UTF-8 Plain Text
Title : Sub_Eng
Language: English
Default : No
Forced: No
Statistics Tags Issue : mkvmerge v25.0.0 ('Prog Noir') 64-bit 2018-10-11 01:47:11 / mkvmerge v25.0.0 ('Prog Noir') 64-bit 2018-10-11 01:47:11 / UTC 2018-10-10T22:44:02Z
FromStats_BitRate : 45
FromStats_Duration: 01:39:40.808000000
FromStats_FrameCount: 1517
FromStats_StreamSize: 34249

Menu
00:00:00.000: :00:00:00.000
00:09:41.706: :00:09:41.581
00:21:10.895: :00:21:10.770
00:31:35.894: :00:31:35.894
00:40:22.921: :00:40:22.921
00:49:43.022: :00:49:42.980
00:59:23.602: :00:59:23.560
01:07:19.077: :01:07:19.035
01:17:30.146: :01:17:30.145
01:29:28.905: :01:29:28.864

Download Links

CONTRASEÑA PARA DESCOMPRIMIR

APORTES NUEVOS

cinemaniahdd.com

APORTES VIEJOS

CinemaniaHD.org

COMPRA O RENUEVA TU PREMIUM DE UPLOADED DESDE EL SIGUIENTE LINK:

http://ul.to/ref/9821430

SI GUSTAS PUEDES SEGUIRNOS EN LAS REDES SOCIALES

Facebook

Twitter

Post Relacionados