My Little Pony: Best Gift Ever (2018) Web-DL 1080p Latino

Descargar My Little Pony: Best Gift Ever (2018) Web-DL 1080p Latino, Mega, Google Drive. En este especial temático navideño de una hora, Mane Six y Spike esperan encontrar el mejor regalo para Hearth’s Warming.



Titulo Original My Little Pony: Best Gift Ever
Año 2018-10-27
Duracion 0h 44m
Director
Reparto , , , ,
Productora
Genero
Titulo original My Little Pony: Best Gift Ever
Audio Español Latino AC3 2.0 Netflix - Ingles AC3 5.1 Netflix
Calidad: WEBDL Resolucion: 1920x1080p Formato: MKV
Encoder: LAZY Peso: 1.40 GiB Duracion: 0h 44m
Subtitulos: No
  • No hay video embed

My Little Pony Friendship is Magic Best Gift Ever (2018) Web-DL 1080p Latino.mkv
Format: Matroska
Format version: Version 4
File size : 1.40 GiB
Duration: 44 min 10 s
Overall bit rate mode : Variable
Overall bit rate: 4 537 kb/s
Movie name: CinemaniaHDD.Net
Encoded date: UTC 2018-12-06 02:37:28
Writing application : mkvmerge v28.2.0 ('The Awakening') 64-bit
Writing library : libebml v1.3.6 + libmatroska v1.4.9

Video
ID: 1
Format: AVC
Format/Info : Advanced Video Codec
Format profile: Main@L4
Format settings : CABAC / 3 Ref Frames
Format settings, CABAC: Yes
Format settings, ReFrames : 3 frames
Codec ID: V_MPEG4/ISO/AVC
Duration: 44 min 9 s
Bit rate mode : Variable
Bit rate: 3 650 kb/s
Maximum bit rate: 5 475 kb/s
Width : 1 920 pixels
Height: 1 080 pixels
Display aspect ratio: 16:9
Frame rate mode : Constant
Frame rate: 23.976 (24000/1001) FPS
Color space : YUV
Chroma subsampling: 4:2:0
Bit depth : 8 bits
Scan type : Progressive
Bits/(Pixel*Frame): 0.073
Stream size : 1.12 GiB (80%)
Title : HD1080p [Web-DL]
Writing library : x264 core 148 r2715 7e75228
Encoding settings : cabac=1 / ref=3 / deblock=1:0:0 / analyse=0x1:0x111 / me=umh / subme=10 / psy=1 / psy_rd=1.00:0.00 / mixed_ref=1 / me_range=24 / chroma_me=1 / trellis=2 / 8x8dct=0 / cqm=0 / deadzone=21,11 / fast_pskip=1 / chroma_qp_offset=-2 / threads=8 / lookahead_threads=1 / sliced_threads=0 / nr=0 / decimate=1 / interlaced=0 / bluray_compat=0 / stitchable=1 / constrained_intra=0 / bframes=2 / b_pyramid=0 / b_adapt=2 / b_bias=0 / direct=3 / weightb=1 / open_gop=0 / weightp=2 / keyint=48 / keyint_min=25 / scenecut=0 / intra_refresh=0 / rc_lookahead=48 / rc=2pass / mbtree=1 / bitrate=3650 / ratetol=1.0 / qcomp=0.50 / qpmin=6 / qpmax=51 / qpstep=4 / cplxblur=20.0 / qblur=0.5 / vbv_maxrate=5475 / vbv_bufsize=7300 / nal_hrd=vbr / filler=0 / ip_ratio=1.40 / aq=1:1.00
Default : Yes
Forced: No

Audio #1
ID: 2
Format: AC-3
Format/Info : Audio Coding 3
Commercial name : Dolby Digital
Codec ID: A_AC3
Duration: 44 min 10 s
Bit rate mode : Constant
Bit rate: 256 kb/s
Channel(s): 2 channels
Channel layout: L R
Sampling rate : 48.0 kHz
Frame rate: 31.250 FPS (1536 SPF)
Bit depth : 16 bits
Compression mode: Lossy
Stream size : 80.9 MiB (6%)
Title : AC3_2.0_WebDL_Esp
Language: Spanish
Service kind: Complete Main
Default : Yes
Forced: Yes

Audio #2
ID: 3
Format: E-AC-3
Format/Info : Enhanced AC-3
Commercial name : Dolby Digital Plus
Codec ID: A_EAC3
Duration: 44 min 10 s
Bit rate mode : Constant
Bit rate: 640 kb/s
Channel(s): 6 channels
Channel layout: L R C LFE Ls Rs
Sampling rate : 48.0 kHz
Frame rate: 31.250 FPS (1536 SPF)
Compression mode: Lossy
Stream size : 202 MiB (14%)
Title : AC3_5.1_WebDL_Eng
Language: English
Service kind: Complete Main
Default : No
Forced: No

Text
ID: 4
Format: UTF-8
Codec ID: S_TEXT/UTF8
Codec ID/Info : UTF-8 Plain Text
Duration: 43 min 41 s
Bit rate: 83 b/s
Count of elements : 1388
Stream size : 26.7 KiB (0%)
Title : Sub_Eng
Language: English
Default : No
Forced: No

Download Links

CONTRASEÑA PARA DESCOMPRIMIR

APORTES NUEVOS

cinemaniahdd.com

APORTES VIEJOS

CinemaniaHD.org

COMPRA O RENUEVA TU PREMIUM DE UPLOADED DESDE EL SIGUIENTE LINK:

http://ul.to/ref/9821430

SI GUSTAS PUEDES SEGUIRNOS EN LAS REDES SOCIALES

Facebook

Twitter

Post Relacionados