Náufrago (2000) Full 1080p Latino

Chuck Noland, un ejecutivo de la empresa multinacional de mensajería FedEx, se ve apartado de su cómoda vida y de su prometida a causa de un accidente de avión por el que queda aislado de la civilización en una remota isla tropical. Único superviviente y solo en la isla, tras cuatro años de subsistencia Chuck aprende todas las técnicas de supervivencia mientras sufre la tortura de la soledad. La solución: arriesgar la vida adentrándose mar adentro.



Titulo original Cast Away
Audio Español Latino AC3 5.1 BLURAY - Ingles DTS 5.1 BLURAY
Calidad: Full 1080p Resolucion: 1920x1080p Formato: MKV
Encoder: Dracarys Peso: 9.22 GiB Duracion: 2h 23m
Subtitulos: Español Latino PGS - Ingles PGS
  • No hay video embed

Format                                 : Matroska
Format version                         : Version 4 / Version 2
File size                              : 9.22 GiB
Duration                               : 2 h 23 min
Overall bit rate                       : 9 177 kb/s
Movie name                             : CinemaniaHDD.net
Encoded date                           : UTC 2018-11-07 23:02:09 / UTC 2018-11-06T04:54:49Z
Writing application                    : mkvmerge v15.0.0 ('Duel with the Devil') 64-bit
Writing library                        : libebml v1.3.5 + libmatroska v1.4.5 / Lavf57.7.2

Video
ID                                     : 1
Format                                 : AVC
Format/Info                            : Advanced Video Codec
Format profile                         : High@L4.1
Format settings                        : CABAC / 4 Ref Frames
Format settings, CABAC                 : Yes
Format settings, RefFrames             : 4 frames
Codec ID                               : V_MPEG4/ISO/AVC
Duration                               : 2 h 23 min
Bit rate                               : 6 845 kb/s
Width                                  : 1 918 pixels
Height                                 : 1 078 pixels
Display aspect ratio                   : 16:9
Frame rate mode                        : Constant
Frame rate                             : 23.976 (24000/1001) FPS
Color space                            : YUV
Chroma subsampling                     : 4:2:0
Bit depth                              : 8 bits
Scan type                              : Progressive
Bits/(Pixel*Frame)                     : 0.138
Stream size                            : 6.88 GiB (75%)
Writing library                        : x264 core 148 r2708 86b7198
Encoding settings                      : cabac=1 / ref=4 / deblock=1:0:0 / analyse=0x3:0x133 / me=esa / subme=10 / psy=1 / psy_rd=1.00:0.00 / mixed_ref=1 / me_range=24 / chroma_me=1 / trellis=2 / 8x8dct=1 / cqm=0 / deadzone=21,11 / fast_pskip=1 / chroma_qp_offset=-2 / threads=34 / lookahead_threads=5 / sliced_threads=0 / nr=0 / decimate=1 / interlaced=0 / bluray_compat=0 / constrained_intra=0 / bframes=8 / b_pyramid=2 / b_adapt=2 / b_bias=0 / direct=3 / weightb=1 / open_gop=0 / weightp=2 / keyint=240 / keyint_min=24 / scenecut=40 / intra_refresh=0 / rc_lookahead=60 / rc=crf / mbtree=1 / crf=20.0 / qcomp=0.60 / qpmin=0 / qpmax=69 / qpstep=4 / vbv_maxrate=62500 / vbv_bufsize=78125 / crf_max=0.0 / nal_hrd=none / filler=0 / ip_ratio=1.40 / aq=1:1.00
Language                               : English
Default                                : Yes
Forced                                 : No
Color range                            : Limited
Color primaries                        : BT.709
Transfer characteristics               : BT.709
Matrix coefficients                    : BT.709
Statistics Tags Issue                  : mkvmerge v15.0.0 ('Duel with the Devil') 64-bit 2018-11-07 23:02:09 / mkvmerge v15.0.0 ('Duel with the Devil') 64-bit 2018-11-07 23:02:09 / UTC 2018-11-06T04:54:49Z
FromStats_BitRate                      : 7016545
FromStats_Duration                     : 02:23:47.578000000
FromStats_FrameCount                   : 206855
FromStats_StreamSize                   : 7566974718

Audio #1
ID                                     : 2
Format                                 : AC-3
Format/Info                            : Audio Coding 3
Format settings, Endianness            : Big
Codec ID                               : A_AC3
Duration                               : 2 h 23 min
Bit rate mode                          : Constant
Bit rate                               : 640 kb/s
Channel(s)                             : 6 channels
Channel positions                      : Front: L C R, Side: L R, LFE
Sampling rate                          : 48.0 kHz
Frame rate                             : 31.250 FPS (1536 SPF)
Bit depth                              : 16 bits
Compression mode                       : Lossy
Stream size                            : 658 MiB (7%)
Language                               : Spanish
Service kind                           : Complete Main
Default                                : Yes
Forced                                 : No
Statistics Tags Issue                  : mkvmerge v15.0.0 ('Duel with the Devil') 64-bit 2018-11-07 23:02:09 / mkvmerge v15.0.0 ('Duel with the Devil') 64-bit 2018-11-07 23:02:09 / UTC 2018-11-06T04:54:49Z
FromStats_BitRate                      : 640000
FromStats_Duration                     : 02:23:47.648000000
FromStats_FrameCount                   : 269614
FromStats_StreamSize                   : 690211840

Audio #2
ID                                     : 3
Format                                 : DTS
Format/Info                            : Digital Theater Systems
Mode                                   : 16
Format settings, Endianness            : Big
Codec ID                               : A_DTS
Duration                               : 2 h 23 min
Bit rate mode                          : Constant
Bit rate                               : 1 509 kb/s
Channel(s)                             : 6 channels
Channel positions                      : Front: L C R, Side: L R, LFE
Sampling rate                          : 48.0 kHz
Frame rate                             : 93.750 FPS (512 SPF)
Bit depth                              : 24 bits
Compression mode                       : Lossy
Stream size                            : 1.52 GiB (16%)
Language                               : English
Default                                : No
Forced                                 : No
Statistics Tags Issue                  : mkvmerge v15.0.0 ('Duel with the Devil') 64-bit 2018-11-07 23:02:09 / mkvmerge v15.0.0 ('Duel with the Devil') 64-bit 2018-11-07 23:02:09 / UTC 2018-11-06T04:54:49Z
FromStats_BitRate                      : 1509000
FromStats_Duration                     : 02:23:47.616000000
FromStats_FrameCount                   : 808839
FromStats_StreamSize                   : 1627384068

Text #1
ID                                     : 4
Format                                 : PGS
Muxing mode                            : zlib
Codec ID                               : S_HDMV/PGS
Codec ID/Info                          : Picture based subtitle format used on BDs/HD-DVDs
Language                               : English
Default                                : No
Forced                                 : No
Statistics Tags Issue                  : mkvmerge v15.0.0 ('Duel with the Devil') 64-bit 2018-11-07 23:02:09 / mkvmerge v15.0.0 ('Duel with the Devil') 64-bit 2018-11-07 23:02:09 / UTC 2018-11-06T04:54:49Z
FromStats_BitRate                      : 15165
FromStats_Duration                     : 02:12:54.758000000
FromStats_FrameCount                   : 1480
FromStats_StreamSize                   : 15117606

Text #2
ID                                     : 5
Format                                 : PGS
Muxing mode                            : zlib
Codec ID                               : S_HDMV/PGS
Codec ID/Info                          : Picture based subtitle format used on BDs/HD-DVDs
Language                               : Spanish
Default                                : No
Forced                                 : No
Statistics Tags Issue                  : mkvmerge v15.0.0 ('Duel with the Devil') 64-bit 2018-11-07 23:02:09 / mkvmerge v15.0.0 ('Duel with the Devil') 64-bit 2018-11-07 23:02:09 / UTC 2018-11-06T04:54:49Z
FromStats_BitRate                      : 14153
FromStats_Duration                     : 02:21:05.874000000
FromStats_FrameCount                   : 1401
FromStats_StreamSize                   : 14977650

Menu
00:00:00.000                           : :Chapter 1
00:01:50.819                           : :Chapter 2
00:08:37.851                           : :Chapter 3
00:12:23.326                           : :Chapter 4
00:17:41.269                           : :Chapter 5
00:20:43.534                           : :Chapter 6
00:22:40.234                           : :Chapter 7
00:25:45.461                           : :Chapter 8
00:31:11.620                           : :Chapter 9
00:35:55.320                           : :Chapter 10
00:39:35.623                           : :Chapter 11
00:42:23.207                           : :Chapter 12
00:46:34.208                           : :Chapter 13
00:51:49.315                           : :Chapter 14
00:56:29.052                           : :Chapter 15
01:01:34.357                           : :Chapter 16
01:04:33.119                           : :Chapter 17
01:13:11.846                           : :Chapter 18
01:17:37.736                           : :Chapter 19
01:19:09.495                           : :Chapter 20
01:20:41.628                           : :Chapter 21
01:26:37.901                           : :Chapter 22
01:34:00.176                           : :Chapter 23
01:40:37.365                           : :Chapter 24
01:45:21.398                           : :Chapter 25
01:47:38.369                           : :Chapter 26
01:53:30.470                           : :Chapter 27
01:55:59.953                           : :Chapter 28
02:04:59.575                           : :Chapter 29
02:08:27.575                           : :Chapter 30
02:12:21.725                           : :Chapter 31
02:16:53.414                           : :Chapter 32

 

Download Links

CONTRASEÑA PARA DESCOMPRIMIR

APORTES NUEVOS

cinemaniahdd.com

APORTES VIEJOS

CinemaniaHD.org

COMPRA O RENUEVA TU PREMIUM DE UPLOADED DESDE EL SIGUIENTE LINK:

http://ul.to/ref/9821430

SI GUSTAS PUEDES SEGUIRNOS EN LAS REDES SOCIALES

Facebook

Twitter

Post Relacionados