Ningún Rastro (2018) 1080p Latino

Ningún Rastro (2018) 1080p Latino; Mega, Google Drive. Un padre y su hija de 13 años viven una vida paradisíaca en un parque enorme de Portland, Oregon, hasta que un pequeño error complica sus vidas para siempre.



Titulo original Leave No Trace
Audio Español Latino AC3 2.0 Capturado - Ingles AC3 5.1 BLURAY
Calidad: 1080p Resolucion: 1920x1036 Formato: MKV
Encoder: CinefiloCool Peso: 3.21 GiB Duracion: 1h 48m
Subtitulos: Español Latino SRT- FORZADOS SRT
  • No hay video embed

Ningun Rastro (2018) 1080p Latino.mkv
Format: Matroska
Format version: Version 4 / Version 2
File size : 3.21 GiB
Duration: 1 h 49 min
Overall bit rate: 4 208 kb/s
Movie name: CinemaniaHDD.Net
Encoded date: UTC 2018-10-31 18:19:42 / UTC 2018-10-30T02:50:42Z
Writing application : mkvmerge v25.0.0 ('Prog Noir') 64-bit
Writing library : libebml v1.3.6 + libmatroska v1.4.9 / Lavf57.7.2

Video
ID: 1
Format: AVC
Format/Info : Advanced Video Codec
Format profile: High@L4.1
Format settings : CABAC / 4 Ref Frames
Format settings, CABAC: Yes
Format settings, RefFrames: 4 frames
Codec ID: V_MPEG4/ISO/AVC
Duration: 1 h 49 min
Bit rate: 3 500 kb/s
Width : 1 920 pixels
Height: 1 036 pixels
Display aspect ratio: 1.85:1
Frame rate mode : Constant
Frame rate: 23.976 (24000/1001) FPS
Color space : YUV
Chroma subsampling: 4:2:0
Bit depth : 8 bits
Scan type : Progressive
Bits/(Pixel*Frame): 0.073
Stream size : 2.61 GiB (81%)
Title : HD1080p [Bluray]
Writing library : x264 core 155 r2893 b00bcaf
Encoding settings : cabac=1 / ref=4 / deblock=1:0:0 / analyse=0x3:0x113 / me=hex / subme=8 / psy=1 / psy_rd=1.00:0.00 / mixed_ref=1 / me_range=16 / chroma_me=1 / trellis=2 / 8x8dct=1 / cqm=0 / deadzone=21,11 / fast_pskip=1 / chroma_qp_offset=-2 / threads=32 / lookahead_threads=5 / sliced_threads=0 / nr=0 / decimate=1 / interlaced=0 / bluray_compat=0 / constrained_intra=0 / bframes=3 / b_pyramid=2 / b_adapt=1 / b_bias=0 / direct=3 / weightb=1 / open_gop=0 / weightp=2 / keyint=240 / keyint_min=24 / scenecut=40 / intra_refresh=0 / rc_lookahead=50 / rc=abr / mbtree=1 / bitrate=3500 / ratetol=1.0 / qcomp=0.60 / qpmin=0 / qpmax=69 / qpstep=4 / vbv_maxrate=62500 / vbv_bufsize=78125 / nal_hrd=none / filler=0 / ip_ratio=1.40 / aq=1:1.00
Default : Yes
Forced: No
Color range : Limited
Color primaries : BT.709
Transfer characteristics: BT.709
Matrix coefficients : BT.709
Statistics Tags Issue : mkvmerge v25.0.0 ('Prog Noir') 64-bit 2018-10-31 18:19:42 / mkvmerge v25.0.0 ('Prog Noir') 64-bit 2018-10-31 18:19:42 / UTC 2018-10-30T02:50:42Z
FromStats_BitRate : 3501713
FromStats_Duration: 01:49:08.375000000
FromStats_FrameCount: 157004
FromStats_StreamSize: 2866317004

Audio #1
ID: 2
Format: AC-3
Format/Info : Audio Coding 3
Format settings, Endianness : Big
Codec ID: A_AC3
Duration: 1 h 49 min
Bit rate mode : Constant
Bit rate: 256 kb/s
Channel(s): 2 channels
Channel positions : Front: L R
Sampling rate : 48.0 kHz
Frame rate: 31.250 FPS (1536 SPF)
Bit depth : 16 bits
Compression mode: Lossy
Delay relative to video : -5 ms
Stream size : 200 MiB (6%)
Title : AC3_2.0_Captura_Esp
Language: Spanish
Service kind: Complete Main
Default : Yes
Forced: No
Statistics Tags Issue : mkvmerge v25.0.0 ('Prog Noir') 64-bit 2018-10-31 18:19:42 / mkvmerge v25.0.0 ('Prog Noir') 64-bit 2018-10-31 18:19:42 / UTC 2018-10-30T02:50:42Z
FromStats_BitRate : 256000
FromStats_Duration: 01:49:08.352000000
FromStats_FrameCount: 204636
FromStats_StreamSize: 209547264

Audio #2
ID: 3
Format: AC-3
Format/Info : Audio Coding 3
Format settings, Endianness : Big
Codec ID: A_AC3
Duration: 1 h 49 min
Bit rate mode : Constant
Bit rate: 448 kb/s
Channel(s): 6 channels
Channel positions : Front: L C R, Side: L R, LFE
Sampling rate : 48.0 kHz
Frame rate: 31.250 FPS (1536 SPF)
Bit depth : 16 bits
Compression mode: Lossy
Stream size : 350 MiB (11%)
Title : AC3_5.1_Bluray_Eng
Language: English
Service kind: Complete Main
Default : No
Forced: No
Statistics Tags Issue : mkvmerge v25.0.0 ('Prog Noir') 64-bit 2018-10-31 18:19:42 / mkvmerge v25.0.0 ('Prog Noir') 64-bit 2018-10-31 18:19:42 / UTC 2018-10-30T02:50:42Z
FromStats_BitRate : 448000
FromStats_Duration: 01:49:08.384000000
FromStats_FrameCount: 204637
FromStats_StreamSize: 366709504

Text #1
ID: 4
Format: UTF-8
Codec ID: S_TEXT/UTF8
Codec ID/Info : UTF-8 Plain Text
Title : Sub_Forzados
Language: Spanish
Default : Yes
Forced: Yes
Statistics Tags Issue : mkvmerge v25.0.0 ('Prog Noir') 64-bit 2018-10-31 18:19:42 / mkvmerge v25.0.0 ('Prog Noir') 64-bit 2018-10-31 18:19:42 / UTC 2018-10-30T02:50:42Z
FromStats_BitRate : 0
FromStats_Duration: 01:42:15.215000000
FromStats_FrameCount: 9
FromStats_StreamSize: 229

Text #2
ID: 5
Format: UTF-8
Codec ID: S_TEXT/UTF8
Codec ID/Info : UTF-8 Plain Text
Title : Sub_Esp
Language: Spanish
Default : No
Forced: No
Statistics Tags Issue : mkvmerge v25.0.0 ('Prog Noir') 64-bit 2018-10-31 18:19:42 / mkvmerge v25.0.0 ('Prog Noir') 64-bit 2018-10-31 18:19:42 / UTC 2018-10-30T02:50:42Z
FromStats_BitRate : 29
FromStats_Duration: 01:46:36.557000000
FromStats_FrameCount: 816
FromStats_StreamSize: 23949

Menu
00:00:00.000: :00:00:00.000
00:06:03.864: :00:06:03.863
00:12:19.113: :00:12:19.113
00:17:38.975: :00:17:38.975
00:24:16.080: :00:24:16.080
00:31:44.569: :00:31:44.569
00:37:35.879: :00:37:35.879
00:43:43.663: :00:43:43.663
00:46:33.624: :00:46:33.624
00:51:24.498: :00:51:24.498
00:58:27.212: :00:58:27.212
01:02:13.605: :01:02:13.605
01:07:40.056: :01:07:40.056
01:11:50.348: :01:11:50.348
01:17:27.685: :01:17:27.685
01:22:42.875: :01:22:42.875
01:28:44.486: :01:28:44.486
01:34:25.869: :01:34:25.869
01:36:38.543: :01:36:38.543
01:43:32.248: :01:43:32.206

Download Links

CONTRASEÑA PARA DESCOMPRIMIR

APORTES NUEVOS

cinemaniahdd.com

APORTES VIEJOS

CinemaniaHD.org

COMPRA O RENUEVA TU PREMIUM DE UPLOADED DESDE EL SIGUIENTE LINK:

http://ul.to/ref/9821430

SI GUSTAS PUEDES SEGUIRNOS EN LAS REDES SOCIALES

Facebook

Twitter

Post Relacionados