Old boy (2013) 1080p Latino

Descargar Old boy (2013) 1080p Latino, Mega, Google Drive. A un ejecutivo publicitario (Josh Brolin) lo secuestran y lo mantienen aislado durante veinte años. Cuando por fin lo liberan, sin darle ninguna explicación, se lanza a una búsqueda obsesiva para descubrir quién orquestó un castigo tan cruel y extraño, pero lo que acaba descubriendo es que sigue siendo víctima de una conspiración.



Titulo original Oldboy
Audio Español Latino AC3 5.1 DVD - Ingles AC3 5.1 BLURAY
Calidad: 1080p Resolucion: 1920x800p Formato: MKV
Encoder: CinefiloCool Peso: 3.14 GiB Duracion: 1h 54m
Subtitulos: Español Latino SRT - Ingles SRT
  • No hay video embed

Oldboy (2013) 1080p Latino.mkv
Format: Matroska
Format version: Version 4
File size : 3.14 GiB
Duration: 1 h 43 min
Overall bit rate: 4 333 kb/s
Movie name: CinemaniaHDD.Net
Encoded date: UTC 2018-12-04 03:15:32
Writing application : mkvmerge v28.2.0 ('The Awakening') 64-bit
Writing library : libebml v1.3.6 + libmatroska v1.4.9

Video
ID: 1
Format: AVC
Format/Info : Advanced Video Codec
Format profile: High@L4.1
Format settings : CABAC / 5 Ref Frames
Format settings, CABAC: Yes
Format settings, ReFrames : 5 frames
Codec ID: V_MPEG4/ISO/AVC
Duration: 1 h 43 min
Bit rate: 3 500 kb/s
Width : 1 920 pixels
Height: 800 pixels
Display aspect ratio: 2.40:1
Frame rate mode : Constant
Frame rate: 23.976 (24000/1001) FPS
Color space : YUV
Chroma subsampling: 4:2:0
Bit depth : 8 bits
Scan type : Progressive
Bits/(Pixel*Frame): 0.095
Stream size : 2.54 GiB (81%)
Title : HD1080p [Bluray]
Writing library : x264 core 155 r2901 7d0ff22
Encoding settings : cabac=1 / ref=5 / deblock=1:0:0 / analyse=0x3:0x133 / me=umh / subme=9 / psy=1 / psy_rd=1.00:0.00 / mixed_ref=1 / me_range=16 / chroma_me=1 / trellis=2 / 8x8dct=1 / cqm=0 / deadzone=21,11 / fast_pskip=1 / chroma_qp_offset=-2 / threads=25 / lookahead_threads=2 / sliced_threads=0 / nr=0 / decimate=1 / interlaced=0 / bluray_compat=0 / constrained_intra=0 / bframes=3 / b_pyramid=2 / b_adapt=2 / b_bias=0 / direct=3 / weightb=1 / open_gop=0 / weightp=2 / keyint=240 / keyint_min=24 / scenecut=40 / intra_refresh=0 / rc_lookahead=60 / rc=2pass / mbtree=1 / bitrate=3500 / ratetol=1.0 / qcomp=0.60 / qpmin=0 / qpmax=69 / qpstep=4 / cplxblur=20.0 / qblur=0.5 / vbv_maxrate=62500 / vbv_bufsize=78125 / nal_hrd=none / filler=0 / ip_ratio=1.40 / aq=1:1.00
Default : Yes
Forced: No
Color range : Limited
Color primaries : BT.709
Transfer characteristics: BT.709
Matrix coefficients : BT.709

Audio #1
ID: 2
Format: AC-3
Format/Info : Audio Coding 3
Commercial name : Dolby Digital
Codec ID: A_AC3
Duration: 1 h 43 min
Bit rate mode : Constant
Bit rate: 384 kb/s
Channel(s): 6 channels
Channel layout: L R C LFE Ls Rs
Sampling rate : 48.0 kHz
Frame rate: 31.250 FPS (1536 SPF)
Bit depth : 16 bits
Compression mode: Lossy
Delay relative to video : 395 ms
Stream size : 285 MiB (9%)
Title : AC3_5.1_DVD_Esp
Language: Spanish
Service kind: Complete Main
Default : Yes
Forced: Yes

Audio #2
ID: 3
Format: AC-3
Format/Info : Audio Coding 3
Commercial name : Dolby Digital
Codec ID: A_AC3
Duration: 1 h 43 min
Bit rate mode : Constant
Bit rate: 448 kb/s
Channel(s): 6 channels
Channel layout: L R C LFE Ls Rs
Sampling rate : 48.0 kHz
Frame rate: 31.250 FPS (1536 SPF)
Bit depth : 16 bits
Compression mode: Lossy
Stream size : 333 MiB (10%)
Title : AC3_5.1_Bluray_Eng
Language: English
Service kind: Complete Main
Default : No
Forced: No

Text #1
ID: 4
Format: UTF-8
Codec ID: S_TEXT/UTF8
Codec ID/Info : UTF-8 Plain Text
Duration: 1 h 38 min
Bit rate: 54 b/s
Count of elements : 1113
Stream size : 39.2 KiB (0%)
Title : Sub_Esp
Language: Spanish
Default : No
Forced: No

Text #2
ID: 5
Format: UTF-8
Codec ID: S_TEXT/UTF8
Codec ID/Info : UTF-8 Plain Text
Duration: 1 h 37 min
Bit rate: 48 b/s
Count of elements : 1079
Stream size : 34.7 KiB (0%)
Title : Sub_Eng
Language: English
Default : No
Forced: No

Menu
00:00:00.000: :00:00:00.000
00:04:45.202: :00:04:45.118
00:10:13.988: :00:10:13.988
00:16:15.600: :00:16:15.600
00:22:18.712: :00:22:18.712
00:30:30.287: :00:30:30.162
00:34:31.111: :00:34:31.111
00:43:42.370: :00:43:42.370
00:52:15.507: :00:52:15.424
00:56:28.677: :00:56:28.677
01:04:09.512: :01:04:09.512
01:10:00.488: :01:10:00.488
01:17:15.047: :01:17:15.047
01:22:37.411: :01:22:37.411
01:29:46.965: :01:29:46.881
01:37:15.580: :01:37:15.580

Download Links

CONTRASEÑA PARA DESCOMPRIMIR

APORTES NUEVOS

cinemaniahdd.com

APORTES VIEJOS

CinemaniaHD.org

COMPRA O RENUEVA TU PREMIUM DE UPLOADED DESDE EL SIGUIENTE LINK:

http://ul.to/ref/9821430

SI GUSTAS PUEDES SEGUIRNOS EN LAS REDES SOCIALES

Facebook

Twitter

Post Relacionados