Paciente Cero (2018) 1080p Latino

Descargar Paciente Cero (2018) 1080p Latino; Mega, Google Drive. Tras una pandemia sin precedentes, la Humanidad ha resultado prácticamente arrasada por un virus que ha convertido a la mayor parte de la población en violentos infectados. Un hombre está capacitado para comunicarse con los infectados, una habilidad que le convierte en el punto de partida para hallar el origen de la infección y su cura.



Titulo original Patient Zero
Audio Español Latino AC3 5.1 BLURAY - Ingles AC3 5.1 BLURAY
Calidad: 1080p Resolucion: 1920x804p Formato: MKV
Encoder: CinefiloCool Peso: 2.64 GiB Duracion: 1h 26m
Subtitulos: Español Latino SRT - Ingles SRT
  • No hay video embed

Patient Zero (2018) 1080p Latino.mkv
Format: Matroska
Format version: Version 4 / Version 2
File size : 2.64 GiB
Duration: 1 h 26 min
Overall bit rate: 4 351 kb/s
Movie name: CinemaniaHDD.Net
Encoded date: UTC 2018-10-19 01:56:27 / UTC 2018-10-19T00:07:38Z
Writing application : mkvmerge v25.0.0 ('Prog Noir') 64-bit
Writing library : libebml v1.3.6 + libmatroska v1.4.9 / Lavf57.7.2

Video
ID: 1
Format: AVC
Format/Info : Advanced Video Codec
Format profile: High@L4.1
Format settings : CABAC / 5 Ref Frames
Format settings, CABAC: Yes
Format settings, RefFrames: 5 frames
Codec ID: V_MPEG4/ISO/AVC
Duration: 1 h 26 min
Bit rate: 3 500 kb/s
Width : 1 920 pixels
Height: 804 pixels
Display aspect ratio: 2.40:1
Frame rate mode : Constant
Frame rate: 23.976 (24000/1001) FPS
Color space : YUV
Chroma subsampling: 4:2:0
Bit depth : 8 bits
Scan type : Progressive
Bits/(Pixel*Frame): 0.095
Stream size : 2.04 GiB (77%)
Title : HD1080p [Bluray]
Writing library : x264 core 155 r2893 b00bcaf
Encoding settings : cabac=1 / ref=5 / deblock=1:0:0 / analyse=0x3:0x113 / me=hex / subme=8 / psy=1 / psy_rd=1.00:0.00 / mixed_ref=1 / me_range=16 / chroma_me=1 / trellis=2 / 8x8dct=1 / cqm=0 / deadzone=21,11 / fast_pskip=1 / chroma_qp_offset=-2 / threads=25 / lookahead_threads=4 / sliced_threads=0 / nr=0 / decimate=1 / interlaced=0 / bluray_compat=0 / constrained_intra=0 / bframes=3 / b_pyramid=2 / b_adapt=1 / b_bias=0 / direct=3 / weightb=1 / open_gop=0 / weightp=2 / keyint=240 / keyint_min=24 / scenecut=40 / intra_refresh=0 / rc_lookahead=50 / rc=abr / mbtree=1 / bitrate=3500 / ratetol=1.0 / qcomp=0.60 / qpmin=0 / qpmax=69 / qpstep=4 / vbv_maxrate=62500 / vbv_bufsize=78125 / nal_hrd=none / filler=0 / ip_ratio=1.40 / aq=1:1.00
Default : Yes
Forced: No
Color range : Limited
Color primaries : BT.709
Transfer characteristics: BT.709
Matrix coefficients : BT.709
Statistics Tags Issue : mkvmerge v25.0.0 ('Prog Noir') 64-bit 2018-10-19 01:56:27 / mkvmerge v25.0.0 ('Prog Noir') 64-bit 2018-10-19 01:56:27 / UTC 2018-10-19T00:07:38Z
FromStats_BitRate : 3452485
FromStats_Duration: 01:26:47.202000000
FromStats_FrameCount: 124848
FromStats_StreamSize: 2247223789

Audio #1
ID: 2
Format: AC-3
Format/Info : Audio Coding 3
Format settings, Endianness : Big
Codec ID: A_AC3
Duration: 1 h 26 min
Bit rate mode : Constant
Bit rate: 448 kb/s
Channel(s): 6 channels
Channel positions : Front: L C R, Side: L R, LFE
Sampling rate : 48.0 kHz
Frame rate: 31.250 FPS (1536 SPF)
Bit depth : 16 bits
Compression mode: Lossy
Stream size : 278 MiB (10%)
Title : AC3_5.1_Bluray_Esp
Language: Spanish
Service kind: Complete Main
Default : Yes
Forced: Yes
Statistics Tags Issue : mkvmerge v25.0.0 ('Prog Noir') 64-bit 2018-10-19 01:56:27 / mkvmerge v25.0.0 ('Prog Noir') 64-bit 2018-10-19 01:56:27 / UTC 2018-10-19T00:07:38Z
FromStats_BitRate : 448000
FromStats_Duration: 01:26:47.232000000
FromStats_FrameCount: 162726
FromStats_StreamSize: 291604992

Audio #2
ID: 3
Format: AC-3
Format/Info : Audio Coding 3
Format settings, Endianness : Big
Codec ID: A_AC3
Duration: 1 h 26 min
Bit rate mode : Constant
Bit rate: 448 kb/s
Channel(s): 6 channels
Channel positions : Front: L C R, Side: L R, LFE
Sampling rate : 48.0 kHz
Frame rate: 31.250 FPS (1536 SPF)
Bit depth : 16 bits
Compression mode: Lossy
Stream size : 278 MiB (10%)
Title : AC3_5.1_Bluray_Eng
Language: English
Service kind: Complete Main
Default : No
Forced: No
Statistics Tags Issue : mkvmerge v25.0.0 ('Prog Noir') 64-bit 2018-10-19 01:56:27 / mkvmerge v25.0.0 ('Prog Noir') 64-bit 2018-10-19 01:56:27 / UTC 2018-10-19T00:07:38Z
FromStats_BitRate : 448000
FromStats_Duration: 01:26:47.200000000
FromStats_FrameCount: 162725
FromStats_StreamSize: 291603200

Text #1
ID: 4
Format: UTF-8
Codec ID: S_TEXT/UTF8
Codec ID/Info : UTF-8 Plain Text
Title : Sub_Forzados
Language: Spanish
Default : Yes
Forced: Yes
Statistics Tags Issue : mkvmerge v25.0.0 ('Prog Noir') 64-bit 2018-10-19 01:56:27 / mkvmerge v25.0.0 ('Prog Noir') 64-bit 2018-10-19 01:56:27 / UTC 2018-10-19T00:07:38Z
FromStats_BitRate : 0
FromStats_Duration: 01:25:45.723000000
FromStats_FrameCount: 6
FromStats_StreamSize: 215

Text #2
ID: 5
Format: UTF-8
Codec ID: S_TEXT/UTF8
Codec ID/Info : UTF-8 Plain Text
Title : Sub_Esp
Language: Spanish
Default : No
Forced: No
Statistics Tags Issue : mkvmerge v25.0.0 ('Prog Noir') 64-bit 2018-10-19 01:56:27 / mkvmerge v25.0.0 ('Prog Noir') 64-bit 2018-10-19 01:56:27 / UTC 2018-10-19T00:07:38Z
FromStats_BitRate : 59
FromStats_Duration: 01:26:25.722000000
FromStats_FrameCount: 1073
FromStats_StreamSize: 38247

Text #3
ID: 6
Format: UTF-8
Codec ID: S_TEXT/UTF8
Codec ID/Info : UTF-8 Plain Text
Title : Sub_Eng
Language: English
Default : No
Forced: No
Statistics Tags Issue : mkvmerge v25.0.0 ('Prog Noir') 64-bit 2018-10-19 01:56:27 / mkvmerge v25.0.0 ('Prog Noir') 64-bit 2018-10-19 01:56:27 / UTC 2018-10-19T00:07:38Z
FromStats_BitRate : 60
FromStats_Duration: 01:21:16.330000000
FromStats_FrameCount: 1059
FromStats_StreamSize: 37056

Menu
00:00:00.000: :Chapter 1
00:05:08.809: :Chapter 2
00:12:52.105: :Chapter 3
00:16:53.471: :Chapter 4
00:24:09.949: :Chapter 5
00:29:51.540: :Chapter 6
00:32:37.164: :Chapter 7
00:39:08.972: :Chapter 8
00:43:31.901: :Chapter 9
00:49:48.611: :Chapter 10
00:54:39.151: :Chapter 11
01:00:11.066: :Chapter 12
01:04:38.333: :Chapter 13
01:09:54.524: :Chapter 14
01:15:23.102: :Chapter 15
01:19:12.498: :Chapter 16

Download Links

CONTRASEÑA PARA DESCOMPRIMIR

APORTES NUEVOS

cinemaniahdd.com

APORTES VIEJOS

CinemaniaHD.org

COMPRA O RENUEVA TU PREMIUM DE UPLOADED DESDE EL SIGUIENTE LINK:

http://ul.to/ref/9821430

SI GUSTAS PUEDES SEGUIRNOS EN LAS REDES SOCIALES

Facebook

Twitter

Post Relacionados