Papillon (2018) Web-DL 1080p Subtitulado

Papillon (2018) Web-DL 1080p Subtitulado; Mega, Google Drive. Red Granite Pictures produce esta nueva versión del clásico homónimo de 1973 dirigido por Franklin J. Schaffner y protagonizado por Steve McQueen y Dustin Hoffman. La película narraba la historia de Henri Charriere “Papillon”, un hombre encarcelado por un crimen que no ha cometido. Por eso es enviado a una prisión de la Guayana Francesa, donde salva la vida a uno de sus compañeros presos, Louis Dega, un falsificador de documentos que decidirá ayudarle a escapar de la cárcel. Juntos trazan un plan de fuga.



Titulo original Papillon
Audio Ingles AC3 5.1 iTunes
Calidad: WEBDL Resolucion: 1916x800p Formato: MKV
Encoder: FGT Peso: 4.59 GiB Duracion: 2h 13m
Subtitulos: Español Latino SRT
  • No hay video embed

Papillon (2018) Web-DL 1080p Subtitulado.mkv
Format: Matroska
Format version: Version 4 / Version 2
File size : 4.59 GiB
Duration: 2 h 13 min
Overall bit rate: 4 935 kb/s
Movie name: CinemaniaHDD.Net
Encoded date: UTC 2018-11-01 04:56:59
Writing application : mkvmerge v25.0.0 ('Prog Noir') 64-bit
Writing library : libebml v1.3.6 + libmatroska v1.4.9

Video
ID: 1
Format: AVC
Format/Info : Advanced Video Codec
Format profile: High@L4
Format settings : CABAC / 5 Ref Frames
Format settings, CABAC: Yes
Format settings, RefFrames: 5 frames
Codec ID: V_MPEG4/ISO/AVC
Duration: 2 h 13 min
Bit rate: 4 549 kb/s
Width : 1 916 pixels
Height: 800 pixels
Display aspect ratio: 2.40:1
Frame rate mode : Constant
Frame rate: 23.976 (23976/1000) FPS
Color space : YUV
Chroma subsampling: 4:2:0
Bit depth : 8 bits
Scan type : Progressive
Bits/(Pixel*Frame): 0.124
Stream size : 4.23 GiB (92%)
Title : HD1080p [Web-DL]
Language: English
Default : Yes
Forced: No
Color range : Limited
Color primaries : BT.709
Transfer characteristics: BT.709
Matrix coefficients : BT.709

Audio
ID: 2
Format: AC-3
Format/Info : Audio Coding 3
Format settings, Endianness : Big
Codec ID: A_AC3
Duration: 2 h 13 min
Bit rate mode : Constant
Bit rate: 384 kb/s
Channel(s): 6 channels
Channel positions : Front: L C R, Side: L R, LFE
Sampling rate : 48.0 kHz
Frame rate: 31.250 FPS (1536 SPF)
Bit depth : 16 bits
Compression mode: Lossy
Delay relative to video : -42 ms
Stream size : 366 MiB (8%)
Title : AC3_5.1_Web-DL_Eng
Language: English
Service kind: Complete Main
Default : Yes
Forced: No

Text
ID: 3
Format: UTF-8
Codec ID: S_TEXT/UTF8
Codec ID/Info : UTF-8 Plain Text
Duration: 2 h 4 min
Bit rate: 27 b/s
Count of elements : 946
Stream size : 25.5 KiB (0%)
Title : Sub_Esp
Language: Spanish
Default : Yes
Forced: Yes

Menu
00:00:00.000: en:1
00:08:17.622: en:2
00:16:48.591: en:3
00:21:26.910: en:4
00:26:32.966: en:5
00:30:40.796: en:6
00:34:11.797: en:7
00:44:52.145: en:8
00:52:55.585: en:9
00:59:04.662: en:10
01:04:13.886: en:11
01:12:19.328: en:12
01:20:36.365: en:13
01:24:09.411: en:14
01:35:20.539: en:15
01:40:54.039: en:16
01:47:11.875: en:17
01:57:04.007: en:18
02:02:59.903: en:19
02:05:58.539: en:20

Download Links

CONTRASEÑA PARA DESCOMPRIMIR

APORTES NUEVOS

cinemaniahdd.com

APORTES VIEJOS

CinemaniaHD.org

COMPRA O RENUEVA TU PREMIUM DE UPLOADED DESDE EL SIGUIENTE LINK:

http://ul.to/ref/9821430

SI GUSTAS PUEDES SEGUIRNOS EN LAS REDES SOCIALES

Facebook

Twitter

Post Relacionados