People You May Know (2017) WEB-DL 1080p Subtitulado

people-you-may-know-42000-poster.jpg

Cuenta la historia de un grupo de amigos que rondan los 40 en Los Angeles. Todos tendrán que afrontar una nueva realidad cuando Delia se queda embarazada de Joe, su mejor amigo y quien es gay.



Titulo Original People You May Know
Año 2017-04-07
Duracion 1h 32m
Director
Reparto ,
Productora
Genero
Titulo original People You May Know
Audio Ingles AC3 5.1 iTunes
Calidad: 1080p Resolucion: 1920x1080 Formato: MKV
Encoder: Lpratto Peso: 3.21 GB Duracion: 1h 32m
Subtitulos: Español Latino SRT
  • No hay video embed

Format: Matroska
Format version: Version 4 / Version 2
File size : 3.22 GiB
Duration: 1 h 27 min
Overall bit rate mode : Variable
Overall bit rate: 5 234 kb/s
Movie name: CinemaniaHDD.com
Encoded date: UTC 2018-03-15 10:54:08
Writing application : mkvmerge v15.0.0 ('Duel with the Devil') 64-bit
Writing library : libebml v1.3.5 + libmatroska v1.4.5
 
Video
ID: 1
Format: AVC
Format/Info : Advanced Video Codec
Format profile: High@L4.1
Format settings, CABAC: Yes
Format settings, RefFrames: 2 frames
Format settings, GOP: M=3, N=50
Codec ID: V_MPEG4/ISO/AVC
Duration: 1 h 27 min
Bit rate mode : Variable
Bit rate: 4 848 kb/s
Maximum bit rate: 7 200 kb/s
Width : 1 920 pixels
Height: 1 080 pixels
Display aspect ratio: 16:9
Frame rate mode : Constant
Frame rate: 25.000 FPS
Color space : YUV
Chroma subsampling: 4:2:0
Bit depth : 8 bits
Scan type : Progressive
Bits/(Pixel*Frame): 0.094
Stream size : 2.98 GiB (93%)
Default : Yes
Forced: No
 
Audio
ID: 2
Format: AC-3
Format/Info : Audio Coding 3
Format settings, Endianness : Big
Codec ID: A_AC3
Duration: 1 h 27 min
Bit rate mode : Constant
Bit rate: 384 kb/s
Channel(s): 6 channels
Channel positions : Front: L C R, Side: L R, LFE
Sampling rate : 48.0 kHz
Frame rate: 31.250 FPS (1536 SPF)
Bit depth : 16 bits
Compression mode: Lossy
Stream size : 242 MiB (7%)
Language: English
Service kind: Complete Main
Default : Yes
Forced: No
 
Text
ID: 3
Format: UTF-8
Codec ID: S_TEXT/UTF8
Codec ID/Info : UTF-8 Plain Text
Duration: 1 h 20 min
Bit rate: 73 b/s
Count of elements : 1382
Stream size : 43.7 KiB (0%)
Language: Spanish
Default : Yes
Forced: No

Download Links

CONTRASEÑA PARA DESCOMPRIMIR

APORTES NUEVOS

cinemaniahdd.com

APORTES VIEJOS

CinemaniaHD.org

COMPRA O RENUEVA TU PREMIUM DE UPLOADED DESDE EL SIGUIENTE LINK:

http://ul.to/ref/9821430

SI GUSTAS PUEDES SEGUIRNOS EN LAS REDES SOCIALES

Facebook

Twitter

Post Relacionados