Pesadilla Siniestra (2017) HD 1080p Latino

Alice es un médico que estudia los sueños, y que se verá abocado a abandonar las tesis científicas para aceptar que una familia está siendo aterrorizada por un parásito demoníaco, que ha existido en todas las culturas humanas desde el principio de los tiempos, y que paraliza a sus víctimas mientras duermen.



Titulo Original Slumber
Año 2017-12-01
Duracion 1h 24m
Director
Reparto , , , , , , , , , ,
Productora
Genero
Titulo original Slumber
Audio Español Latino AC3 2.0 DVD - Ingles AC3 5.1 BLURAY
Calidad: 1080p Resolucion: 1920x802 Formato: MKV
Encoder: chesse92 Peso: 2.53 GiB Duracion: 1h 24m
Subtitulos: Español Latino SRT
  • No hay video embed

Slumber (2017) HD 1080p Latino.mkv
Format: Matroska
Format version: Version 4
File size : 2.53 GiB
Duration: 1 h 24 min
Overall bit rate: 4 294 kb/s
Movie name: CinemaniaHDD.net
Encoded date: UTC 2018-12-19 18:26:32 / UTC 2018-12-19T16:34:38Z
Writing application : mkvmerge v28.2.0 ('The Awakening') 64-bit
Writing library : libebml v1.3.6 + libmatroska v1.4.9 / Lavf57.7.2

Video
ID: 1
Format: AVC
Format/Info : Advanced Video Codec
Format profile: High@L4.1
Format settings : CABAC / 5 Ref Frames
Format settings, CABAC: Yes
Format settings, ReFrames : 5 frames
Codec ID: V_MPEG4/ISO/AVC
Duration: 1 h 24 min
Bit rate: 3 600 kb/s
Width : 1 920 pixels
Height: 802 pixels
Display aspect ratio: 2.40:1
Frame rate mode : Constant
Frame rate: 24.000 FPS
Color space : YUV
Chroma subsampling: 4:2:0
Bit depth : 8 bits
Scan type : Progressive
Bits/(Pixel*Frame): 0.097
Stream size : 2.11 GiB (84%)
Writing library : x264 core 155 r2901 7d0ff22
Encoding settings : cabac=1 / ref=5 / deblock=1:0:0 / analyse=0x3:0x113 / me=hex / subme=8 / psy=1 / psy_rd=1.00:0.00 / mixed_ref=1 / me_range=16 / chroma_me=1 / trellis=2 / 8x8dct=1 / cqm=0 / deadzone=21,11 / fast_pskip=1 / chroma_qp_offset=-2 / threads=25 / lookahead_threads=4 / sliced_threads=0 / nr=0 / decimate=1 / interlaced=0 / bluray_compat=0 / constrained_intra=0 / bframes=3 / b_pyramid=2 / b_adapt=1 / b_bias=0 / direct=3 / weightb=1 / open_gop=0 / weightp=2 / keyint=240 / keyint_min=24 / scenecut=40 / intra_refresh=0 / rc_lookahead=50 / rc=abr / mbtree=1 / bitrate=3600 / ratetol=1.0 / qcomp=0.60 / qpmin=0 / qpmax=69 / qpstep=4 / vbv_maxrate=62500 / vbv_bufsize=78125 / nal_hrd=none / filler=0 / ip_ratio=1.40 / aq=1:1.00
Default : Yes
Forced: No
Color range : Limited
Color primaries : BT.709
Transfer characteristics: BT.709
Matrix coefficients : BT.709

Audio #1
ID: 2
Format: AC-3
Format/Info : Audio Coding 3
Commercial name : Dolby Digital
Codec ID: A_AC3
Duration: 1 h 24 min
Bit rate mode : Constant
Bit rate: 256 kb/s
Channel(s): 2 channels
Channel layout: L R
Sampling rate : 48.0 kHz
Frame rate: 31.250 FPS (1536 SPF)
Bit depth : 16 bits
Compression mode: Lossy
Delay relative to video : 19 ms
Stream size : 154 MiB (6%)
Language: Spanish
Service kind: Complete Main
Default : Yes
Forced: No

Audio #2
ID: 3
Format: AC-3
Format/Info : Audio Coding 3
Commercial name : Dolby Digital
Codec ID: A_AC3
Duration: 1 h 24 min
Bit rate mode : Constant
Bit rate: 448 kb/s
Channel(s): 6 channels
Channel layout: L R C LFE Ls Rs
Sampling rate : 48.0 kHz
Frame rate: 31.250 FPS (1536 SPF)
Bit depth : 16 bits
Compression mode: Lossy
Stream size : 270 MiB (10%)
Title : Surround
Language: English
Service kind: Complete Main
Default : No
Forced: No

Text #1
ID: 4
Format: UTF-8
Codec ID: S_TEXT/UTF8
Codec ID/Info : UTF-8 Plain Text
Duration: 1 h 21 min
Bit rate: 44 b/s
Count of elements : 776
Stream size : 26.4 KiB (0%)
Language: Spanish
Default : Yes
Forced: No

Text #2
ID: 5
Format: UTF-8
Codec ID: S_TEXT/UTF8
Codec ID/Info : UTF-8 Plain Text
Duration: 1 h 21 min
Bit rate: 44 b/s
Count of elements : 776
Stream size : 26.4 KiB (0%)
Default : No
Forced: No

Menu
00:00:00.000: :Chapter 1
00:10:51.333: :Chapter 2
00:22:46.292: :Chapter 3
00:33:57.583: :Chapter 4
00:44:47.917: :Chapter 5
00:57:23.583: :Chapter 6
01:08:00.083: :Chapter 7
01:18:56.958: :Chapter 8

Download Links

CONTRASEÑA PARA DESCOMPRIMIR

APORTES NUEVOS

cinemaniahdd.com

APORTES VIEJOS

CinemaniaHD.org

COMPRA O RENUEVA TU PREMIUM DE UPLOADED DESDE EL SIGUIENTE LINK:

http://ul.to/ref/9821430

SI GUSTAS PUEDES SEGUIRNOS EN LAS REDES SOCIALES

Facebook

Twitter

Post Relacionados