Philadelphia (1993) Full 1080p Latino

Andrew Beckett, un joven y prometedor abogado de Philadelphia, es despedido del prestigioso bufete en el que trabaja cuando sus jefes se enteran de que ha contraído el sida. Decide entonces demandar a la empresa por despido improcedente, pero en un principio ningún abogado acepta defender su caso.



Titulo original Philadelphia
Audio Español Latino AC3 2.0 BLURAY - Ingles DTS 5.1 BLURAY
Calidad: Full 1080p Resolucion: 1920x1080p Formato: MKV
Encoder: Dracarys Peso: 8.39 GiB Duracion: 2h 5m
Subtitulos: Español Latino PGS - Ingles PGS
  • No hay video embed

Format                                   : Matroska
Format version                           : Version 4 / Version 2
File size                                : 8.39 GiB
Duration                                 : 2 h 5 min
Overall bit rate                         : 9 566 kb/s
Movie name                               : CinemaniaHDD.net
Encoded date                             : UTC 2018-10-11 16:40:08 / UTC 2018-10-10T17:17:00Z
Writing application                      : mkvmerge v15.0.0 ('Duel with the Devil') 64-bit
Writing library                          : libebml v1.3.5 + libmatroska v1.4.5 / Lavf57.7.2

Video
ID                                       : 1
Format                                   : AVC
Format/Info                              : Advanced Video Codec
Format profile                           : High@L4.1
Format settings                          : CABAC / 4 Ref Frames
Format settings, CABAC                   : Yes
Format settings, RefFrames               : 4 frames
Codec ID                                 : V_MPEG4/ISO/AVC
Duration                                 : 2 h 5 min
Bit rate                                 : 7 675 kb/s
Width                                    : 1 920 pixels
Height                                   : 1 080 pixels
Display aspect ratio                     : 16:9
Frame rate mode                          : Constant
Frame rate                               : 23.976 (24000/1001) FPS
Color space                              : YUV
Chroma subsampling                       : 4:2:0
Bit depth                                : 8 bits
Scan type                                : Progressive
Bits/(Pixel*Frame)                       : 0.154
Stream size                              : 6.73 GiB (80%)
Writing library                          : x264 core 148 r2708 86b7198
Encoding settings                        : cabac=1 / ref=4 / deblock=1:0:0 / analyse=0x3:0x133 / me=esa / subme=10 / psy=1 / psy_rd=1.00:0.00 / mixed_ref=1 / me_range=24 / chroma_me=1 / trellis=2 / 8x8dct=1 / cqm=0 / deadzone=21,11 / fast_pskip=1 / chroma_qp_offset=-2 / threads=34 / lookahead_threads=5 / sliced_threads=0 / nr=0 / decimate=1 / interlaced=0 / bluray_compat=0 / constrained_intra=0 / bframes=8 / b_pyramid=2 / b_adapt=2 / b_bias=0 / direct=3 / weightb=1 / open_gop=0 / weightp=2 / keyint=240 / keyint_min=24 / scenecut=40 / intra_refresh=0 / rc_lookahead=60 / rc=crf / mbtree=1 / crf=20.0 / qcomp=0.60 / qpmin=0 / qpmax=69 / qpstep=4 / vbv_maxrate=62500 / vbv_bufsize=78125 / crf_max=0.0 / nal_hrd=none / filler=0 / ip_ratio=1.40 / aq=1:1.00
Language                                 : English
Default                                  : Yes
Forced                                   : No
Color range                              : Limited
Color primaries                          : BT.709
Transfer characteristics                 : BT.709
Matrix coefficients                      : BT.709
Statistics Tags Issue                    : mkvmerge v15.0.0 ('Duel with the Devil') 64-bit 2018-10-11 16:40:08 / mkvmerge v15.0.0 ('Duel with the Devil') 64-bit 2018-10-11 16:40:08 / UTC 2018-10-10T17:17:00Z
FromStats_BitRate                        : 7836188
FromStats_Duration                       : 02:05:29.522000000
FromStats_FrameCount                     : 180528
FromStats_StreamSize                     : 7375344550

Audio #1
ID                                       : 2
Format                                   : AC-3
Format/Info                              : Audio Coding 3
Mode                                     : Dolby Digital
Format settings, Endianness              : Big
Codec ID                                 : A_AC3
Duration                                 : 2 h 5 min
Bit rate mode                            : Constant
Bit rate                                 : 192 kb/s
Channel(s)                               : 2 channels
Channel positions                        : Front: L R
Sampling rate                            : 48.0 kHz
Frame rate                               : 31.250 FPS (1536 SPF)
Bit depth                                : 16 bits
Compression mode                         : Lossy
Delay relative to video                  : 32 ms
Stream size                              : 172 MiB (2%)
Language                                 : Spanish
Service kind                             : Complete Main
Default                                  : Yes
Forced                                   : No
Statistics Tags Issue                    : mkvmerge v15.0.0 ('Duel with the Devil') 64-bit 2018-10-11 16:40:08 / mkvmerge v15.0.0 ('Duel with the Devil') 64-bit 2018-10-11 16:40:08 / UTC 2018-10-10T17:17:00Z
FromStats_BitRate                        : 192000
FromStats_Duration                       : 02:05:29.504000000
FromStats_FrameCount                     : 235297
FromStats_StreamSize                     : 180708096

Audio #2
ID                                       : 3
Format                                   : DTS
Format/Info                              : Digital Theater Systems
Mode                                     : 16
Format settings, Endianness              : Big
Codec ID                                 : A_DTS
Duration                                 : 2 h 5 min
Bit rate mode                            : Constant
Bit rate                                 : 1 509 kb/s
Channel(s)                               : 5 channels
Channel positions                        : Front: L C R, Side: L R
Sampling rate                            : 48.0 kHz
Frame rate                               : 93.750 FPS (512 SPF)
Bit depth                                : 16 bits
Compression mode                         : Lossy
Delay relative to video                  : 21 ms
Stream size                              : 1.32 GiB (16%)
Language                                 : English
Default                                  : No
Forced                                   : No
Statistics Tags Issue                    : mkvmerge v15.0.0 ('Duel with the Devil') 64-bit 2018-10-11 16:40:08 / mkvmerge v15.0.0 ('Duel with the Devil') 64-bit 2018-10-11 16:40:08 / UTC 2018-10-10T17:17:00Z
FromStats_BitRate                        : 1508999
FromStats_Duration                       : 02:05:29.494000000
FromStats_FrameCount                     : 705890
FromStats_StreamSize                     : 1420250680

Text #1
ID                                       : 4
Format                                   : PGS
Muxing mode                              : zlib
Codec ID                                 : S_HDMV/PGS
Codec ID/Info                            : Picture based subtitle format used on BDs/HD-DVDs
Language                                 : English
Default                                  : No
Forced                                   : No
Statistics Tags Issue                    : mkvmerge v15.0.0 ('Duel with the Devil') 64-bit 2018-10-11 16:40:08 / mkvmerge v15.0.0 ('Duel with the Devil') 64-bit 2018-10-11 16:40:08 / UTC 2018-10-10T17:17:00Z
FromStats_BitRate                        : 32422
FromStats_Duration                       : 01:55:20.414000000
FromStats_FrameCount                     : 2370
FromStats_StreamSize                     : 28047428

Text #2
ID                                       : 5
Format                                   : PGS
Muxing mode                              : zlib
Codec ID                                 : S_HDMV/PGS
Codec ID/Info                            : Picture based subtitle format used on BDs/HD-DVDs
Language                                 : Spanish
Default                                  : No
Forced                                   : No
Statistics Tags Issue                    : mkvmerge v15.0.0 ('Duel with the Devil') 64-bit 2018-10-11 16:40:08 / mkvmerge v15.0.0 ('Duel with the Devil') 64-bit 2018-10-11 16:40:08 / UTC 2018-10-10T17:17:00Z
FromStats_BitRate                        : 31842
FromStats_Duration                       : 01:58:10.959000000
FromStats_FrameCount                     : 2869
FromStats_StreamSize                     : 28223808

Menu
00:00:00.000                             : :Chapter 1
00:05:42.968                             : :Chapter 2
00:13:44.282                             : :Chapter 3
00:24:51.991                             : :Chapter 4
00:32:44.171                             : :Chapter 5
00:39:51.848                             : :Chapter 6
00:46:07.348                             : :Chapter 7
00:55:23.570                             : :Chapter 8
01:01:08.582                             : :Chapter 9
01:07:21.955                             : :Chapter 10
01:16:02.058                             : :Chapter 11
01:26:40.529                             : :Chapter 12
01:36:54.684                             : :Chapter 13
01:44:13.372                             : :Chapter 14
01:47:54.593                             : :Chapter 15
01:55:41.560                             : :Chapter 16

 

Download Links

CONTRASEÑA PARA DESCOMPRIMIR

APORTES NUEVOS

cinemaniahdd.com

APORTES VIEJOS

CinemaniaHD.org

COMPRA O RENUEVA TU PREMIUM DE UPLOADED DESDE EL SIGUIENTE LINK:

http://ul.to/ref/9821430

SI GUSTAS PUEDES SEGUIRNOS EN LAS REDES SOCIALES

Facebook

Twitter

Post Relacionados