Pie Pequeño (2018) Full 1080p Latino

Descargar Pie Pequeño (2018) Full 1080p Latino, Mega, Google Drive. Migo es un Yeti que vive con los de su especie en un poblado en lo alto de las nevadas montañas. Aunque todos dicen lo contrario, él está convencido de realmente existen los Pies Pequeños, es decir, esos míticos monstruos salidos de las peores pesadillas que tienen unos pies anormalmente pequeños, dientes perfectos y solo tienen pelo en lo alto de la cabeza. Definitivamente, Migo no está de acuerdo en que estas criaturas solo existan en las leyendas.



Titulo Original Smallfoot
Año 2018-09-20
Duracion 1h 36m
Director
Reparto , , , , , , , , , , , , ,
Productora
Genero
Titulo original Smallfoot
Audio Español Latino AC3 5.1 BLURAY - Ingles DTS 5.1 BLURAY
Calidad: Full 1080p Resolucion: 1920x1080 Formato: MKV
Encoder: CinefiloCool Peso: 6.03 GiB Duracion: 1h 36m
Subtitulos: Español Latino PGS - Ingles PGS
  • No hay video embed

Pie Pequeño (2018) Full 1080p Latino.mkv
Format: Matroska
Format version: Version 4 / Version 2
File size : 6.03 GiB
Duration: 1 h 36 min
Overall bit rate: 8 972 kb/s
Movie name: CinemaniaHDD.Net
Encoded date: UTC 2018-12-08 04:52:02
Writing application : mkvmerge v25.0.0 ('Prog Noir') 64-bit
Writing library : libebml v1.3.6 + libmatroska v1.4.9

Video
ID: 1
Format: AVC
Format/Info : Advanced Video Codec
Format profile: High@L4.1
Format settings : CABAC / 4 Ref Frames
Format settings, CABAC: Yes
Format settings, RefFrames: 4 frames
Codec ID: V_MPEG4/ISO/AVC
Duration: 1 h 36 min
Bit rate: 4 119 kb/s
Width : 1 920 pixels
Height: 1 080 pixels
Display aspect ratio: 16:9
Frame rate mode : Constant
Frame rate: 23.976 (24000/1001) FPS
Color space : YUV
Chroma subsampling: 4:2:0
Bit depth : 8 bits
Scan type : Progressive
Bits/(Pixel*Frame): 0.083
Stream size : 2.77 GiB (46%)
Title : Full HD1080p [Bluray]
Writing library : x264 core 155 r2893 b00bcaf
Encoding settings : cabac=1 / ref=4 / deblock=1:0:0 / analyse=0x3:0x133 / me=esa / subme=10 / psy=1 / psy_rd=1.00:0.00 / mixed_ref=1 / me_range=24 / chroma_me=1 / trellis=2 / 8x8dct=1 / cqm=0 / deadzone=21,11 / fast_pskip=1 / chroma_qp_offset=-2 / threads=34 / lookahead_threads=5 / sliced_threads=0 / nr=0 / decimate=1 / interlaced=0 / bluray_compat=0 / constrained_intra=0 / bframes=8 / b_pyramid=2 / b_adapt=2 / b_bias=0 / direct=3 / weightb=1 / open_gop=0 / weightp=2 / keyint=240 / keyint_min=24 / scenecut=40 / intra_refresh=0 / rc_lookahead=60 / rc=crf / mbtree=1 / crf=20.0 / qcomp=0.60 / qpmin=0 / qpmax=69 / qpstep=4 / vbv_maxrate=62500 / vbv_bufsize=78125 / crf_max=0.0 / nal_hrd=none / filler=0 / ip_ratio=1.40 / aq=1:1.00
Default : Yes
Forced: No
Color range : Limited
Color primaries : BT.709
Transfer characteristics: BT.709
Matrix coefficients : BT.709

Audio #1
ID: 2
Format: AC-3
Format/Info : Audio Coding 3
Format settings, Endianness : Big
Codec ID: A_AC3
Duration: 1 h 36 min
Bit rate mode : Constant
Bit rate: 640 kb/s
Channel(s): 6 channels
Channel positions : Front: L C R, Side: L R, LFE
Sampling rate : 48.0 kHz
Frame rate: 31.250 FPS (1536 SPF)
Bit depth : 16 bits
Compression mode: Lossy
Stream size : 441 MiB (7%)
Title : AC3_5.1_Bluray_Esp
Language: Spanish
Service kind: Complete Main
Default : Yes
Forced: Yes

Audio #2
ID: 3
Format: DTS
Format/Info : Digital Theater Systems
Format profile: MA / Core
Mode: 16
Format settings, Endianness : Big
Codec ID: A_DTS
Duration: 1 h 36 min
Bit rate mode : Variable / Constant
Bit rate: 4 179 kb/s / 1 509 kb/s
Channel(s): 6 channels
Channel positions : Front: L C R, Side: L R, LFE
Sampling rate : 48.0 kHz
Frame rate: 93.750 FPS (512 SPF)
Bit depth : 24 bits
Compression mode: Lossless / Lossy
Stream size : 2.81 GiB (47%)
Title : DTS-MA_6.1_Bluray_Eng
Language: English
Default : No
Forced: No

Text #1
ID: 4
Format: PGS
Muxing mode : zlib
Codec ID: S_HDMV/PGS
Codec ID/Info : Picture based subtitle format used on BDs/HD-DVDs
Duration: 1 h 35 min
Bit rate: 40.6 kb/s
Count of elements : 2998
Stream size : 27.8 MiB (0%)
Title : Sub_Esp [PGS]
Language: Spanish
Default : No
Forced: No

Text #2
ID: 5
Format: PGS
Muxing mode : zlib
Codec ID: S_HDMV/PGS
Codec ID/Info : Picture based subtitle format used on BDs/HD-DVDs
Duration: 1 h 35 min
Bit rate: 53.4 kb/s
Count of elements : 3864
Stream size : 36.6 MiB (1%)
Title : Sub_Eng [PGS]
Language: English
Default : No
Forced: No

Menu
00:00:00.000: :Capítulo 01
00:09:56.262: :Capítulo 02
00:21:36.295: :Capítulo 03
00:32:10.637: :Capítulo 04
00:38:33.603: :Capítulo 05
00:49:59.705: :Capítulo 06
00:55:37.167: :Capítulo 07
01:01:53.210: :Capítulo 08
01:12:04.278: :Capítulo 09
01:18:26.076: :Capítulo 10
01:26:16.880: :Capítulo 11
01:31:12.300: :Capítulo 12

Download Links

CONTRASEÑA PARA DESCOMPRIMIR

APORTES NUEVOS

cinemaniahdd.com

APORTES VIEJOS

CinemaniaHD.org

COMPRA O RENUEVA TU PREMIUM DE UPLOADED DESDE EL SIGUIENTE LINK:

http://ul.to/ref/9821430

SI GUSTAS PUEDES SEGUIRNOS EN LAS REDES SOCIALES

Facebook

Twitter

Post Relacionados