Primer impacto (1996) Full 1080p Latino

Con la carrera armamentística internacional como telón de fondo, Jackie Chan, un oficial de la policía de Hong Kong contratado por la CIA y por una Organización de Inteligencia Rusa, utiliza todas las armas a su alcance para recuperar una cabeza atómica ucraniana que ha sido robada.



Titulo Original 警察故事4之簡單任務
Año 1996-02-10
Duracion 1h 47m
Director
Reparto , , , , , , , , , , , , , , , ,
Productora
Genero
Titulo original 警察故事4之簡單任務
Audio Español Latino DTS 2.0 BLURAY - Ingles DTS 5.1 BLURAY
Calidad: Full 1080p Resolucion: 1920x1080p Formato: MKV
Encoder: Dracarys Peso: 12.7 GiB Duracion: 1h 47m
Subtitulos: Español Latino PGS - Ingles PGS
  • No hay video embed

Format                                   : Matroska
Format version                           : Version 4 / Version 2
File size                                : 12.7 GiB
Duration                                 : 1 h 23 min
Overall bit rate                         : 21.7 Mb/s
Movie name                               : CinemaniaHDD.net
Encoded date                             : UTC 2018-10-07 18:51:44 / UTC 2018-09-22T23:20:44Z
Writing application                      : mkvmerge v15.0.0 ('Duel with the Devil') 64-bit
Writing library                          : libebml v1.3.5 + libmatroska v1.4.5 / Lavf57.7.2

Video
ID                                       : 1
Format                                   : AVC
Format/Info                              : Advanced Video Codec
Format profile                           : High@L4.1
Format settings                          : CABAC / 4 Ref Frames
Format settings, CABAC                   : Yes
Format settings, RefFrames               : 4 frames
Codec ID                                 : V_MPEG4/ISO/AVC
Duration                                 : 1 h 23 min
Bit rate                                 : 18.2 Mb/s
Width                                    : 1 920 pixels
Height                                   : 1 080 pixels
Display aspect ratio                     : 16:9
Frame rate mode                          : Constant
Frame rate                               : 23.976 (24000/1001) FPS
Color space                              : YUV
Chroma subsampling                       : 4:2:0
Bit depth                                : 8 bits
Scan type                                : Progressive
Bits/(Pixel*Frame)                       : 0.367
Stream size                              : 10.7 GiB (84%)
Writing library                          : x264 core 148 r2708 86b7198
Encoding settings                        : cabac=1 / ref=4 / deblock=1:0:0 / analyse=0x3:0x133 / me=esa / subme=10 / psy=1 / psy_rd=1.00:0.00 / mixed_ref=1 / me_range=24 / chroma_me=1 / trellis=2 / 8x8dct=1 / cqm=0 / deadzone=21,11 / fast_pskip=1 / chroma_qp_offset=-2 / threads=34 / lookahead_threads=5 / sliced_threads=0 / nr=0 / decimate=1 / interlaced=0 / bluray_compat=0 / constrained_intra=0 / bframes=8 / b_pyramid=2 / b_adapt=2 / b_bias=0 / direct=3 / weightb=1 / open_gop=0 / weightp=2 / keyint=240 / keyint_min=24 / scenecut=40 / intra_refresh=0 / rc_lookahead=60 / rc=crf / mbtree=1 / crf=20.0 / qcomp=0.60 / qpmin=0 / qpmax=69 / qpstep=4 / vbv_maxrate=62500 / vbv_bufsize=78125 / crf_max=0.0 / nal_hrd=none / filler=0 / ip_ratio=1.40 / aq=1:1.00
Language                                 : English
Default                                  : Yes
Forced                                   : No
Color range                              : Limited
Color primaries                          : BT.709
Transfer characteristics                 : BT.709
Matrix coefficients                      : BT.709
Statistics Tags Issue                    : mkvmerge v15.0.0 ('Duel with the Devil') 64-bit 2018-10-07 18:51:44 / mkvmerge v15.0.0 ('Duel with the Devil') 64-bit 2018-10-07 18:51:44 / UTC 2018-09-22T23:20:44Z
FromStats_BitRate                        : 18611057
FromStats_Duration                       : 01:23:50.067000000
FromStats_FrameCount                     : 120601
FromStats_StreamSize                     : 11701858338

Audio #1
ID                                       : 2
Format                                   : DTS
Format/Info                              : Digital Theater Systems
Mode                                     : 16
Format settings, Endianness              : Big
Codec ID                                 : A_DTS
Duration                                 : 1 h 23 min
Bit rate mode                            : Constant
Bit rate                                 : 1 509 kb/s
Channel(s)                               : 2 channels
Channel positions                        : Front: L R
Sampling rate                            : 48.0 kHz
Frame rate                               : 93.750 FPS (512 SPF)
Bit depth                                : 24 bits
Compression mode                         : Lossy
Stream size                              : 905 MiB (7%)
Language                                 : Spanish
Default                                  : Yes
Forced                                   : No
Statistics Tags Issue                    : mkvmerge v15.0.0 ('Duel with the Devil') 64-bit 2018-10-07 18:51:44 / mkvmerge v15.0.0 ('Duel with the Devil') 64-bit 2018-10-07 18:51:44 / UTC 2018-09-22T23:20:44Z
FromStats_BitRate                        : 1508999
FromStats_Duration                       : 01:23:50.059000000
FromStats_FrameCount                     : 471568
FromStats_StreamSize                     : 948794816

Audio #2
ID                                       : 3
Format                                   : DTS
Format/Info                              : Digital Theater Systems
Mode                                     : 16
Format settings, Endianness              : Big
Codec ID                                 : A_DTS
Duration                                 : 1 h 23 min
Bit rate mode                            : Constant
Bit rate                                 : 1 509 kb/s
Channel(s)                               : 6 channels
Channel positions                        : Front: L C R, Side: L R, LFE
Sampling rate                            : 48.0 kHz
Frame rate                               : 93.750 FPS (512 SPF)
Bit depth                                : 24 bits
Compression mode                         : Lossy
Stream size                              : 905 MiB (7%)
Language                                 : English
Default                                  : No
Forced                                   : No
Statistics Tags Issue                    : mkvmerge v15.0.0 ('Duel with the Devil') 64-bit 2018-10-07 18:51:44 / mkvmerge v15.0.0 ('Duel with the Devil') 64-bit 2018-10-07 18:51:44 / UTC 2018-09-22T23:20:44Z
FromStats_BitRate                        : 1508999
FromStats_Duration                       : 01:23:50.038000000
FromStats_FrameCount                     : 471566
FromStats_StreamSize                     : 948790792

Text #1
ID                                       : 4
Format                                   : PGS
Muxing mode                              : zlib
Codec ID                                 : S_HDMV/PGS
Codec ID/Info                            : Picture based subtitle format used on BDs/HD-DVDs
Language                                 : English
Default                                  : No
Forced                                   : No
Statistics Tags Issue                    : mkvmerge v15.0.0 ('Duel with the Devil') 64-bit 2018-10-07 18:51:44 / mkvmerge v15.0.0 ('Duel with the Devil') 64-bit 2018-10-07 18:51:44 / UTC 2018-09-22T23:20:44Z
FromStats_BitRate                        : 38656
FromStats_Duration                       : 01:15:06.293000000
FromStats_FrameCount                     : 1684
FromStats_StreamSize                     : 21774955

Text #2
ID                                       : 5
Format                                   : PGS
Muxing mode                              : zlib
Codec ID                                 : S_HDMV/PGS
Codec ID/Info                            : Picture based subtitle format used on BDs/HD-DVDs
Language                                 : Spanish
Default                                  : No
Forced                                   : No
Statistics Tags Issue                    : mkvmerge v15.0.0 ('Duel with the Devil') 64-bit 2018-10-07 18:51:44 / mkvmerge v15.0.0 ('Duel with the Devil') 64-bit 2018-10-07 18:51:44 / UTC 2018-09-22T23:20:44Z
FromStats_BitRate                        : 35175
FromStats_Duration                       : 01:15:04.375000000
FromStats_FrameCount                     : 1508
FromStats_StreamSize                     : 19805251

Menu
00:00:00.000                             : :Chapter 1
00:00:15.057                             : :Chapter 2
00:02:05.208                             : :Chapter 3
00:03:44.891                             : :Chapter 4
00:09:47.962                             : :Chapter 5
00:15:20.211                             : :Chapter 6
00:23:43.964                             : :Chapter 7
00:26:17.743                             : :Chapter 8
00:33:18.497                             : :Chapter 9
00:36:05.288                             : :Chapter 10
00:40:58.873                             : :Chapter 11
00:45:09.123                             : :Chapter 12
00:48:46.465                             : :Chapter 13
00:54:01.530                             : :Chapter 14
00:56:32.723                             : :Chapter 15
01:05:27.257                             : :Chapter 16
01:07:32.215                             : :Chapter 17
01:11:21.319                             : :Chapter 18
01:14:58.244                             : :Chapter 19
01:17:07.665                             : :Chapter 20
01:19:35.521                             : :Chapter 21

Download Links

CONTRASEÑA PARA DESCOMPRIMIR

APORTES NUEVOS

cinemaniahdd.com

APORTES VIEJOS

CinemaniaHD.org

COMPRA O RENUEVA TU PREMIUM DE UPLOADED DESDE EL SIGUIENTE LINK:

http://ul.to/ref/9821430

SI GUSTAS PUEDES SEGUIRNOS EN LAS REDES SOCIALES

Facebook

Twitter

Post Relacionados