Promesa al amanecer (2017) HD 1080p Castellano

Adaptación de la novela autobiográfica de Romain Gary, en la que recuerda su juventud en Lituania, su éxodo con su familia al sur de Francia, para escapar de las consecuencias de la llegada al poder de Hitler en Alemania, y su carrera en las Fuerzas Aéreas francesas.
Español AC3 2.0 – Frances AC3 5.1



Titulo Original La Promesse de l'aube
Año 2017-12-20
Duracion 2h 10m
Director
Reparto , , , , , , , ,
Productora
Genero
Titulo original La Promesse de l'aube
Audio Se especifica abajo de la Sinopsis
Calidad: 1080p Resolucion: 1920x804 Formato: MKV
Encoder: chesse92 Peso: 3.72 GiB Duracion: 2h 10m
Subtitulos: No
  • No hay video embed

La Promesse De L Aube (2017) HD 1080p Castellano.mkv
Format: Matroska
Format version: Version 4
File size : 3.72 GiB
Duration: 2 h 10 min
Overall bit rate: 4 078 kb/s
Movie name: CinemaniaHD.net
Encoded date: UTC 2018-12-24 15:05:54 / UTC 2018-12-23T03:40:59Z
Writing application : mkvmerge v28.2.0 ('The Awakening') 64-bit
Writing library : libebml v1.3.6 + libmatroska v1.4.9 / Lavf57.7.2

Video
ID: 1
Format: AVC
Format/Info : Advanced Video Codec
Format profile: High@L4.1
Format settings : CABAC / 5 Ref Frames
Format settings, CABAC: Yes
Format settings, ReFrames : 5 frames
Codec ID: V_MPEG4/ISO/AVC
Duration: 2 h 10 min
Bit rate: 3 500 kb/s
Width : 1 920 pixels
Height: 804 pixels
Display aspect ratio: 2.40:1
Frame rate mode : Constant
Frame rate: 23.976 (24000/1001) FPS
Color space : YUV
Chroma subsampling: 4:2:0
Bit depth : 8 bits
Scan type : Progressive
Bits/(Pixel*Frame): 0.095
Stream size : 3.13 GiB (84%)
Writing library : x264 core 155 r2901 7d0ff22
Encoding settings : cabac=1 / ref=5 / deblock=1:0:0 / analyse=0x3:0x113 / me=hex / subme=8 / psy=1 / psy_rd=1.00:0.00 / mixed_ref=1 / me_range=16 / chroma_me=1 / trellis=2 / 8x8dct=1 / cqm=0 / deadzone=21,11 / fast_pskip=1 / chroma_qp_offset=-2 / threads=25 / lookahead_threads=4 / sliced_threads=0 / nr=0 / decimate=1 / interlaced=0 / bluray_compat=0 / constrained_intra=0 / bframes=3 / b_pyramid=2 / b_adapt=1 / b_bias=0 / direct=3 / weightb=1 / open_gop=0 / weightp=2 / keyint=240 / keyint_min=24 / scenecut=40 / intra_refresh=0 / rc_lookahead=50 / rc=abr / mbtree=1 / bitrate=3500 / ratetol=1.0 / qcomp=0.60 / qpmin=0 / qpmax=69 / qpstep=4 / vbv_maxrate=62500 / vbv_bufsize=78125 / nal_hrd=none / filler=0 / ip_ratio=1.40 / aq=1:1.00
Default : Yes
Forced: No
Color range : Limited
Color primaries : BT.709
Transfer characteristics: BT.709
Matrix coefficients : BT.709

Audio #1
ID: 2
Format: AC-3
Format/Info : Audio Coding 3
Commercial name : Dolby Digital
Codec ID: A_AC3
Duration: 2 h 10 min
Bit rate mode : Constant
Bit rate: 192 kb/s
Channel(s): 2 channels
Channel layout: L R
Sampling rate : 48.0 kHz
Frame rate: 31.250 FPS (1536 SPF)
Bit depth : 16 bits
Compression mode: Lossy
Delay relative to video : -5 ms
Stream size : 179 MiB (5%)
Language: Spanish
Service kind: Complete Main
Default : Yes
Forced: No

Audio #2
ID: 3
Format: AC-3
Format/Info : Audio Coding 3
Commercial name : Dolby Digital
Codec ID: A_AC3
Duration: 2 h 10 min
Bit rate mode : Constant
Bit rate: 448 kb/s
Channel(s): 6 channels
Channel layout: L R C LFE Ls Rs
Sampling rate : 48.0 kHz
Frame rate: 31.250 FPS (1536 SPF)
Bit depth : 16 bits
Compression mode: Lossy
Stream size : 418 MiB (11%)
Title : Surround
Language: French
Service kind: Complete Main
Default : No
Forced: No

Menu
00:00:00.000: :00:00:00.000
00:09:40.080: :00:09:39.913
00:15:40.731: :00:15:40.731
00:22:33.811: :00:22:33.811
00:31:14.873: :00:31:14.873
00:38:49.160: :00:38:49.160
00:49:22.918: :00:49:22.918
00:57:00.125: :00:57:00.125
01:06:58.389: :01:06:58.348
01:16:06.062: :01:16:06.061
01:28:28.094: :01:28:28.094
01:35:04.449: :01:35:04.449
01:42:56.671: :01:42:56.670
01:52:08.388: :01:52:08.347
01:57:05.227: :01:57:05.227
02:05:14.465: :02:05:14.424

Download Links

CONTRASEÑA PARA DESCOMPRIMIR

APORTES NUEVOS

cinemaniahdd.com

APORTES VIEJOS

CinemaniaHD.org

COMPRA O RENUEVA TU PREMIUM DE UPLOADED DESDE EL SIGUIENTE LINK:

http://ul.to/ref/9821430

SI GUSTAS PUEDES SEGUIRNOS EN LAS REDES SOCIALES

Facebook

Twitter

Post Relacionados