Public Disturbance (2018) WEB-DL 1080p Latino

Los Janoskians están invitados a realizar un truco en una fiesta de cumpleaños llena de estrellas para Alison, la hija de un famoso magnate de los medios (Tyson). Cuando su acto es cancelado en el último minuto, los bromistas planean el último atraco para secuestrar a la parte aburrida y crear la mayor perturbación pública de sus vidas.



Titulo Original Public Disturbance
Año 2018-08-28
Duracion 1h 24m
Director
Reparto , , , , , , , , , , ,
Productora
Genero
Titulo original Public Disturbance
Audio Español Latino AC3 2.0 DVD - Ingles AC3 5.1 iTunes
Calidad: WEBDL Resolucion: 1908x1000 Formato: MKV
Encoder: FGT Peso: 3.36 GiB Duracion: 1h 24m
Subtitulos: Español Latino SRT
  • No hay video embed

Public.Disturbance.2018.1080p.WEB-DL.D.Latino.mkv
Format: Matroska
Format version: Version 4
File size : 3.36 GiB
Duration: 1 h 24 min
Overall bit rate: 5 724 kb/s
Movie name: CinemaniaHDD.net
Encoded date: UTC 2018-12-28 22:33:02
Writing application : mkvmerge v28.2.0 ('The Awakening') 64-bit
Writing library : libebml v1.3.6 + libmatroska v1.4.9

Video
ID: 1
Format: AVC
Format/Info : Advanced Video Codec
Format profile: High@L4
Format settings : CABAC / 4 Ref Frames
Format settings, CABAC: Yes
Format settings, ReFrames : 4 frames
Codec ID: V_MPEG4/ISO/AVC
Duration: 1 h 24 min
Bit rate: 5 146 kb/s
Width : 1 908 pixels
Height: 1 000 pixels
Display aspect ratio: 1.908
Frame rate mode : Constant
Frame rate: 23.976 (24000/1001) FPS
Color space : YUV
Chroma subsampling: 4:2:0
Bit depth : 8 bits
Scan type : Progressive
Bits/(Pixel*Frame): 0.112
Stream size : 3.02 GiB (90%)
Language: English
Default : Yes
Forced: No
Color range : Limited
Color primaries : BT.709
Transfer characteristics: BT.709
Matrix coefficients : BT.709

Audio #1
ID: 2
Format: AC-3
Format/Info : Audio Coding 3
Commercial name : Dolby Digital
Codec ID: A_AC3
Duration: 1 h 24 min
Bit rate mode : Constant
Bit rate: 192 kb/s
Channel(s): 2 channels
Channel layout: L R
Sampling rate : 48.0 kHz
Frame rate: 31.250 FPS (1536 SPF)
Bit depth : 16 bits
Compression mode: Lossy
Delay relative to video : 58 ms
Stream size : 116 MiB (3%)
Language: Spanish
Service kind: Complete Main
Default : Yes
Forced: No

Audio #2
ID: 3
Format: AC-3
Format/Info : Audio Coding 3
Commercial name : Dolby Digital
Codec ID: A_AC3
Duration: 1 h 24 min
Bit rate mode : Constant
Bit rate: 384 kb/s
Channel(s): 6 channels
Channel layout: L R C LFE Ls Rs
Sampling rate : 48.0 kHz
Frame rate: 31.250 FPS (1536 SPF)
Bit depth : 16 bits
Compression mode: Lossy
Delay relative to video : -42 ms
Stream size : 231 MiB (7%)
Language: English
Service kind: Complete Main
Default : No
Forced: No

Text
ID: 4
Format: UTF-8
Codec ID: S_TEXT/UTF8
Codec ID/Info : UTF-8 Plain Text
Duration: 1 h 19 min
Bit rate: 79 b/s
Count of elements : 1431
Stream size : 46.0 KiB (0%)
Default : Yes
Forced: No

Menu
00:00:00.000: en:1
00:11:34.000: en:2
00:21:04.000: en:3
00:31:43.000: en:4
00:41:59.000: en:5
00:52:29.000: en:6
01:01:42.000: en:7
01:11:55.000: en:8
01:19:49.000: en:9

Download Links

CONTRASEÑA PARA DESCOMPRIMIR

APORTES NUEVOS

cinemaniahdd.com

APORTES VIEJOS

CinemaniaHD.org

COMPRA O RENUEVA TU PREMIUM DE UPLOADED DESDE EL SIGUIENTE LINK:

http://ul.to/ref/9821430

SI GUSTAS PUEDES SEGUIRNOS EN LAS REDES SOCIALES

Facebook

Twitter

Post Relacionados