¿Quién mato a los puppets? (2018) Full 1080p Latino

Descargar ¿Quién mato a los puppets? (2018) Full 1080p Latino, Mega, Google Drive. En el barrio más vulnerable de Los Ángeles, donde cohabitan muñecos y humanos, dos detectives enfrentados, un humano y un moñeco, se ven obligados a trabajar juntos para tratar de averiguar quién está asesinando brutalmente al antiguo elenco de “The Happytime Gang”, un exitoso programa de marionetas de los años 80



Titulo original The Happytime Murders
Audio Español Latino AC3 5.1 DVD - Ingles DTS 5.1 BLURAY
Calidad: Full 1080p Resolucion: 1920X1080p Formato: MKV
Encoder: CinemaniaHD Peso: 5.68 GiB Duracion: 1h 31m
Subtitulos: Español Latino SRT- FORZADOS SRT
  • No hay video embed

Quien Mato a los Puppets (2018) Full 1080p Latino.mkv
Format: Matroska
Format version: Version 4
File size : 5.68 GiB
Duration: 1 h 30 min
Overall bit rate mode : Variable
Overall bit rate: 8 955 kb/s
Movie name: CinemaniaHDD.Net
Encoded date: UTC 2018-12-02 06:00:25
Writing application : mkvmerge v28.2.0 ('The Awakening') 64-bit
Writing library : libebml v1.3.6 + libmatroska v1.4.9

Video
ID: 1
Format: AVC
Format/Info : Advanced Video Codec
Format profile: High@L4.1
Format settings : CABAC / 4 Ref Frames
Format settings, CABAC: Yes
Format settings, ReFrames : 4 frames
Codec ID: V_MPEG4/ISO/AVC
Duration: 1 h 30 min
Bit rate: 6 241 kb/s
Width : 1 920 pixels
Height: 1 080 pixels
Display aspect ratio: 16:9
Frame rate mode : Constant
Frame rate: 23.976 (24000/1001) FPS
Color space : YUV
Chroma subsampling: 4:2:0
Bit depth : 8 bits
Scan type : Progressive
Bits/(Pixel*Frame): 0.126
Stream size : 3.96 GiB (70%)
Title : Full HD1080p [Bluray]
Writing library : x264 core 155 r2901 7d0ff22
Encoding settings : cabac=1 / ref=4 / deblock=1:0:0 / analyse=0x3:0x133 / me=esa / subme=10 / psy=1 / psy_rd=1.00:0.00 / mixed_ref=1 / me_range=24 / chroma_me=1 / trellis=2 / 8x8dct=1 / cqm=0 / deadzone=21,11 / fast_pskip=1 / chroma_qp_offset=-2 / threads=34 / lookahead_threads=5 / sliced_threads=0 / nr=0 / decimate=1 / interlaced=0 / bluray_compat=0 / constrained_intra=0 / bframes=8 / b_pyramid=2 / b_adapt=2 / b_bias=0 / direct=3 / weightb=1 / open_gop=0 / weightp=2 / keyint=240 / keyint_min=24 / scenecut=40 / intra_refresh=0 / rc_lookahead=60 / rc=crf / mbtree=1 / crf=20.0 / qcomp=0.60 / qpmin=0 / qpmax=69 / qpstep=4 / vbv_maxrate=62500 / vbv_bufsize=78125 / crf_max=0.0 / nal_hrd=none / filler=0 / ip_ratio=1.40 / aq=1:1.00
Default : Yes
Forced: Yes
Color range : Limited
Color primaries : BT.709
Transfer characteristics: BT.709
Matrix coefficients : BT.709

Audio #1
ID: 2
Format: AC-3
Format/Info : Audio Coding 3
Commercial name : Dolby Digital
Codec ID: A_AC3
Duration: 1 h 30 min
Bit rate mode : Constant
Bit rate: 384 kb/s
Channel(s): 6 channels
Channel layout: L R C LFE Ls Rs
Sampling rate : 48.0 kHz
Frame rate: 31.250 FPS (1536 SPF)
Bit depth : 16 bits
Compression mode: Lossy
Stream size : 249 MiB (4%)
Title : AC3_5.1_DVD_Esp
Language: Spanish
Service kind: Complete Main
Default : Yes
Forced: Yes

Audio #2
ID: 3
Format: DTS XLL
Format/Info : Digital Theater Systems
Commercial name : DTS-HD Master Audio
Codec ID: A_DTS
Duration: 1 h 30 min
Bit rate mode : Variable
Bit rate: 2 304 kb/s
Channel(s): 6 channels
Channel layout: C L R Ls Rs LFE
Sampling rate : 48.0 kHz
Frame rate: 93.750 FPS (512 SPF)
Bit depth : 16 bits
Compression mode: Lossless
Stream size : 1.46 GiB (26%)
Title : DTS-MA_5.1_Bluray_Eng
Language: English
Default : No
Forced: No

Text #1
ID: 4
Format: UTF-8
Codec ID: S_TEXT/UTF8
Codec ID/Info : UTF-8 Plain Text
Duration: 1 h 5 min
Bit rate: 0 b/s
Count of elements : 7
Stream size : 258 Bytes (0%)
Title : Sub_Forzados
Language: Spanish
Default : Yes
Forced: Yes

Text #2
ID: 5
Format: UTF-8
Codec ID: S_TEXT/UTF8
Codec ID/Info : UTF-8 Plain Text
Duration: 1 h 19 min
Bit rate: 90 b/s
Count of elements : 1557
Stream size : 52.2 KiB (0%)
Title : Sub_Esp
Language: Spanish
Default : No
Forced: No

Text #3
ID: 6
Format: PGS
Muxing mode : zlib
Codec ID: S_HDMV/PGS
Codec ID/Info : Picture based subtitle format used on BDs/HD-DVDs
Duration: 1 h 20 min
Bit rate: 64.1 kb/s
Count of elements : 3952
Stream size : 36.7 MiB (1%)
Title : Sub_Esp [PGS]
Language: English
Default : No
Forced: No

Menu
00:00:00.000: :00:00:00.000
00:08:35.765: :00:08:35.765
00:15:12.995: :00:15:12.995
00:22:23.676: :00:22:23.676
00:31:17.250: :00:31:17.250
00:38:13.208: :00:38:13.208
00:44:11.899: :00:44:11.899
00:51:28.752: :00:51:28.752
01:00:52.524: :01:00:52.524
01:08:02.662: :01:08:02.662
01:14:15.868: :01:14:15.868
01:20:37.541: :01:20:37.541

Download Links

CONTRASEÑA PARA DESCOMPRIMIR

APORTES NUEVOS

cinemaniahdd.com

APORTES VIEJOS

CinemaniaHD.org

COMPRA O RENUEVA TU PREMIUM DE UPLOADED DESDE EL SIGUIENTE LINK:

http://ul.to/ref/9821430

SI GUSTAS PUEDES SEGUIRNOS EN LAS REDES SOCIALES

Facebook

Twitter

Post Relacionados