Red de mentiras (2008) Full 1080p Latino

Roger Ferris (Leonardo DiCaprio) es el mejor hombre de la CIA. Las misiones que le encargan lo llevan desde Oriente Medio a Washington. Cada uno de sus pasos depende de una voz al otro lado de una línea telefónica segura: la del veterano de la CIA Ed Hoffman (Russell Crowe), responsable de las operaciones de la Agencia en todo Oriente Medio. Trabajando desde un móvil en su confortable casa, Hoffman sigue la pista de un líder terrorista que ha dirigido una campaña de bombardeos eludiendo a la red de inteligencia más sofisticada del mundo. Para sacar a los terroristas de su madriguera, Ferris tendrá que entrar en su turbio mundo. Adaptación de la novela “Body of Lies”, de David Ignatius, antiguo columnista de asuntos internacionales del diario “The Washington Post”.



Titulo original Body of Lies
Audio Español Latino AC3 5.1 BLURAY - Ingles DTS 5.1 BLURAY
Calidad: Full 1080p Resolucion: 1920x1080p Formato: MKV
Encoder: Dracarys Peso: 6.88 GiB Duracion: 2h 8m
Subtitulos: Español Latino PGS - Ingles PGS
  • No hay video embed

Format                                   : Matroska
Format version                           : Version 4 / Version 2
File size                                : 6.88 GiB
Duration                                 : 2 h 8 min
Overall bit rate                         : 7 675 kb/s
Movie name                               : CinemaniaHDD.net
Encoded date                             : UTC 2018-10-07 18:44:55 / UTC 2018-09-30T02:29:52Z
Writing application                      : mkvmerge v15.0.0 ('Duel with the Devil') 64-bit
Writing library                          : libebml v1.3.5 + libmatroska v1.4.5 / Lavf57.7.2

Video
ID                                       : 1
Format                                   : AVC
Format/Info                              : Advanced Video Codec
Format profile                           : High@L4.1
Format settings                          : CABAC / 4 Ref Frames
Format settings, CABAC                   : Yes
Format settings, RefFrames               : 4 frames
Codec ID                                 : V_MPEG4/ISO/AVC
Duration                                 : 2 h 8 min
Bit rate                                 : 6 434 kb/s
Width                                    : 1 920 pixels
Height                                   : 1 080 pixels
Display aspect ratio                     : 16:9
Frame rate mode                          : Constant
Frame rate                               : 23.976 (24000/1001) FPS
Color space                              : YUV
Chroma subsampling                       : 4:2:0
Bit depth                                : 8 bits
Scan type                                : Progressive
Bits/(Pixel*Frame)                       : 0.129
Stream size                              : 5.77 GiB (84%)
Writing library                          : x264 core 148 r2708 86b7198
Encoding settings                        : cabac=1 / ref=4 / deblock=1:0:0 / analyse=0x3:0x133 / me=esa / subme=10 / psy=1 / psy_rd=1.00:0.00 / mixed_ref=1 / me_range=24 / chroma_me=1 / trellis=2 / 8x8dct=1 / cqm=0 / deadzone=21,11 / fast_pskip=1 / chroma_qp_offset=-2 / threads=34 / lookahead_threads=5 / sliced_threads=0 / nr=0 / decimate=1 / interlaced=0 / bluray_compat=0 / constrained_intra=0 / bframes=8 / b_pyramid=2 / b_adapt=2 / b_bias=0 / direct=3 / weightb=1 / open_gop=0 / weightp=2 / keyint=240 / keyint_min=24 / scenecut=40 / intra_refresh=0 / rc_lookahead=60 / rc=crf / mbtree=1 / crf=20.0 / qcomp=0.60 / qpmin=0 / qpmax=69 / qpstep=4 / vbv_maxrate=62500 / vbv_bufsize=78125 / crf_max=0.0 / nal_hrd=none / filler=0 / ip_ratio=1.40 / aq=1:1.00
Language                                 : English
Default                                  : Yes
Forced                                   : No
Color range                              : Limited
Color primaries                          : BT.709
Transfer characteristics                 : BT.709
Matrix coefficients                      : BT.709
Statistics Tags Issue                    : mkvmerge v15.0.0 ('Duel with the Devil') 64-bit 2018-10-07 18:44:55 / mkvmerge v15.0.0 ('Duel with the Devil') 64-bit 2018-10-07 18:44:55 / UTC 2018-09-30T02:29:52Z
FromStats_BitRate                        : 6552390
FromStats_Duration                       : 02:08:18.274000000
FromStats_FrameCount                     : 184574
FromStats_StreamSize                     : 6305262221

Audio #1
ID                                       : 2
Format                                   : AC-3
Format/Info                              : Audio Coding 3
Format settings, Endianness              : Big
Codec ID                                 : A_AC3
Duration                                 : 2 h 8 min
Bit rate mode                            : Constant
Bit rate                                 : 448 kb/s
Channel(s)                               : 6 channels
Channel positions                        : Front: L C R, Side: L R, LFE
Sampling rate                            : 48.0 kHz
Frame rate                               : 31.250 FPS (1536 SPF)
Bit depth                                : 16 bits
Compression mode                         : Lossy
Stream size                              : 411 MiB (6%)
Language                                 : Spanish
Service kind                             : Complete Main
Default                                  : Yes
Forced                                   : No
Statistics Tags Issue                    : mkvmerge v15.0.0 ('Duel with the Devil') 64-bit 2018-10-07 18:44:55 / mkvmerge v15.0.0 ('Duel with the Devil') 64-bit 2018-10-07 18:44:55 / UTC 2018-09-30T02:29:52Z
FromStats_BitRate                        : 448000
FromStats_Duration                       : 02:08:18.304000000
FromStats_FrameCount                     : 240572
FromStats_StreamSize                     : 431105024

Audio #2
ID                                       : 3
Format                                   : AC-3
Format/Info                              : Audio Coding 3
Format settings, Endianness              : Big
Codec ID                                 : A_AC3
Duration                                 : 2 h 8 min
Bit rate mode                            : Constant
Bit rate                                 : 640 kb/s
Channel(s)                               : 6 channels
Channel positions                        : Front: L C R, Side: L R, LFE
Sampling rate                            : 48.0 kHz
Frame rate                               : 31.250 FPS (1536 SPF)
Bit depth                                : 16 bits
Compression mode                         : Lossy
Stream size                              : 587 MiB (8%)
Language                                 : English
Service kind                             : Complete Main
Default                                  : No
Forced                                   : No
Statistics Tags Issue                    : mkvmerge v15.0.0 ('Duel with the Devil') 64-bit 2018-10-07 18:44:55 / mkvmerge v15.0.0 ('Duel with the Devil') 64-bit 2018-10-07 18:44:55 / UTC 2018-09-30T02:29:52Z
FromStats_BitRate                        : 640000
FromStats_Duration                       : 02:08:18.304000000
FromStats_FrameCount                     : 240572
FromStats_StreamSize                     : 615864320

Text #1
ID                                       : 4
Format                                   : PGS
Muxing mode                              : zlib
Codec ID                                 : S_HDMV/PGS
Codec ID/Info                            : Picture based subtitle format used on BDs/HD-DVDs
Language                                 : English
Default                                  : No
Forced                                   : No
Statistics Tags Issue                    : mkvmerge v15.0.0 ('Duel with the Devil') 64-bit 2018-10-07 18:44:55 / mkvmerge v15.0.0 ('Duel with the Devil') 64-bit 2018-10-07 18:44:55 / UTC 2018-09-30T02:29:52Z
FromStats_BitRate                        : 37489
FromStats_Duration                       : 02:07:21.801000000
FromStats_FrameCount                     : 3460
FromStats_StreamSize                     : 35811343

Text #2
ID                                       : 5
Format                                   : PGS
Muxing mode                              : zlib
Codec ID                                 : S_HDMV/PGS
Codec ID/Info                            : Picture based subtitle format used on BDs/HD-DVDs
Language                                 : Spanish
Default                                  : No
Forced                                   : No
Statistics Tags Issue                    : mkvmerge v15.0.0 ('Duel with the Devil') 64-bit 2018-10-07 18:44:55 / mkvmerge v15.0.0 ('Duel with the Devil') 64-bit 2018-10-07 18:44:55 / UTC 2018-09-30T02:29:52Z
FromStats_BitRate                        : 31632
FromStats_Duration                       : 02:07:36.608000000
FromStats_FrameCount                     : 3166
FromStats_StreamSize                     : 30274425

Text #3
ID                                       : 6
Format                                   : PGS
Muxing mode                              : zlib
Codec ID                                 : S_HDMV/PGS
Codec ID/Info                            : Picture based subtitle format used on BDs/HD-DVDs
Title                                    : Forzado
Language                                 : Spanish
Default                                  : Yes
Forced                                   : Yes
Statistics Tags Issue                    : mkvmerge v15.0.0 ('Duel with the Devil') 64-bit 2018-10-07 18:44:55 / mkvmerge v15.0.0 ('Duel with the Devil') 64-bit 2018-10-07 18:44:55 / UTC 2018-09-30T02:29:52Z
FromStats_BitRate                        : 2116
FromStats_Duration                       : 02:07:36.608000000
FromStats_FrameCount                     : 260
FromStats_StreamSize                     : 2025284

Menu
00:00:00.000                             : :Chapter 1
00:03:08.188                             : :Chapter 2
00:06:53.872                             : :Chapter 3
00:12:32.961                             : :Chapter 4
00:16:10.720                             : :Chapter 5
00:18:41.579                             : :Chapter 6
00:26:49.108                             : :Chapter 7
00:30:44.634                             : :Chapter 8
00:34:10.590                             : :Chapter 9
00:39:22.402                             : :Chapter 10
00:41:48.506                             : :Chapter 11
00:44:08.312                             : :Chapter 12
00:48:10.012                             : :Chapter 13
00:52:48.957                             : :Chapter 14
00:56:01.525                             : :Chapter 15
01:00:10.690                             : :Chapter 16
01:03:56.750                             : :Chapter 17
01:07:02.852                             : :Chapter 18
01:09:53.815                             : :Chapter 19
01:14:44.230                             : :Chapter 20
01:17:20.427                             : :Chapter 21
01:22:43.250                             : :Chapter 22
01:24:49.710                             : :Chapter 23
01:28:14.915                             : :Chapter 24
01:31:36.324                             : :Chapter 25
01:35:20.006                             : :Chapter 26
01:40:17.803                             : :Chapter 27
01:43:22.697                             : :Chapter 28
01:46:48.986                             : :Chapter 29
01:52:50.430                             : :Chapter 30
01:55:17.536                             : :Chapter 31
01:58:11.126                             : :Chapter 32
02:01:50.595                             : :Chapter 33

 

Download Links

CONTRASEÑA PARA DESCOMPRIMIR

APORTES NUEVOS

cinemaniahdd.com

APORTES VIEJOS

CinemaniaHD.org

COMPRA O RENUEVA TU PREMIUM DE UPLOADED DESDE EL SIGUIENTE LINK:

http://ul.to/ref/9821430

SI GUSTAS PUEDES SEGUIRNOS EN LAS REDES SOCIALES

Facebook

Twitter

Post Relacionados