Sargento Stubby, un héroe muy especial (2018) 1080p Latino

Descargar Sargento Stubby, un héroe muy especial (2018) 1080p Latino, Mega, Google Drive, Torrent. La verdadera historia de un perro callejero que se que se convierte en un héroe durante la Primera Guerra Mundial. Gracias al joven Robert Conroy, del ejército estadounidense, la vida de este perro cambia para siempre. Ahora tendrá el nombre de Stubby y la oportunidad de embarcarse en una aventura que definiría un siglo. Por sus acciones valerosas, el sargento canino Stubby será reconocido como el perro más condecorado de la historia de Estados Unidos. Esta película de animación basada en una historia real está dirigida por Richard Lanni (Road to Victory) y en la versión original cuenta con las voces de Logan Lerman (Percy Jackson y el mar de los monstruos), Gérard Depardieu (Enamorado de mi mujer) y Helena Bonham Carter (Ocean’s 8).



Titulo Original Sgt. Stubby: An American Hero
Año 2018-04-13
Duracion 1h 25m
Director
Reparto , , , , ,
Productora
Genero
Titulo original Sgt. Stubby: An American Hero
Audio Español Latino AC3 5.1 DVD - Ingles AC3 5.1 BLURAY
Calidad: 1080p Resolucion: 1920x1036p Formato: MKV
Encoder: Chesse92 Peso: 2.61 GiB Duracion: 1h 25m
Subtitulos: No
  • No hay video embed

Sargento Stubby (2018) 1080p Latino.mkv
Format: Matroska
Format version: Version 4
File size : 2.61 GiB
Duration: 1 h 24 min
Overall bit rate: 4 428 kb/s
Movie name: CinemaniaHDD.Net
Encoded date: UTC 2018-12-22 06:10:45
Writing application : mkvmerge v28.2.0 ('The Awakening') 64-bit
Writing library : libebml v1.3.6 + libmatroska v1.4.9

Video
ID: 1
Format: AVC
Format/Info : Advanced Video Codec
Format profile: High@L4.1
Format settings : CABAC / 4 Ref Frames
Format settings, CABAC: Yes
Format settings, ReFrames : 4 frames
Codec ID: V_MPEG4/ISO/AVC
Duration: 1 h 24 min
Bit rate: 3 600 kb/s
Width : 1 920 pixels
Height: 1 036 pixels
Display aspect ratio: 1.85:1
Frame rate mode : Constant
Frame rate: 23.976 (24000/1001) FPS
Color space : YUV
Chroma subsampling: 4:2:0
Bit depth : 8 bits
Scan type : Progressive
Bits/(Pixel*Frame): 0.075
Stream size : 2.08 GiB (80%)
Title : HD1080p (Bluray)
Writing library : x264 core 155 r2901 7d0ff22
Encoding settings : cabac=1 / ref=4 / deblock=1:0:0 / analyse=0x3:0x113 / me=hex / subme=8 / psy=1 / psy_rd=1.00:0.00 / mixed_ref=1 / me_range=16 / chroma_me=1 / trellis=2 / 8x8dct=1 / cqm=0 / deadzone=21,11 / fast_pskip=1 / chroma_qp_offset=-2 / threads=32 / lookahead_threads=5 / sliced_threads=0 / nr=0 / decimate=1 / interlaced=0 / bluray_compat=0 / constrained_intra=0 / bframes=3 / b_pyramid=2 / b_adapt=1 / b_bias=0 / direct=3 / weightb=1 / open_gop=0 / weightp=2 / keyint=240 / keyint_min=24 / scenecut=40 / intra_refresh=0 / rc_lookahead=50 / rc=abr / mbtree=1 / bitrate=3600 / ratetol=1.0 / qcomp=0.60 / qpmin=0 / qpmax=69 / qpstep=4 / vbv_maxrate=62500 / vbv_bufsize=78125 / nal_hrd=none / filler=0 / ip_ratio=1.40 / aq=1:1.00
Default : Yes
Forced: No
Color range : Limited
Color primaries : BT.709
Transfer characteristics: BT.709
Matrix coefficients : BT.709

Audio #1
ID: 2
Format: AC-3
Format/Info : Audio Coding 3
Commercial name : Dolby Digital
Codec ID: A_AC3
Duration: 1 h 24 min
Bit rate mode : Constant
Bit rate: 448 kb/s
Channel(s): 6 channels
Channel layout: L R C LFE Ls Rs
Sampling rate : 48.0 kHz
Frame rate: 31.250 FPS (1536 SPF)
Bit depth : 16 bits
Compression mode: Lossy
Delay relative to video : -5 ms
Stream size : 271 MiB (10%)
Title : AC3_5.1_DVD_Esp
Language: Spanish
Service kind: Complete Main
Default : Yes
Forced: Yes

Audio #2
ID: 3
Format: AC-3
Format/Info : Audio Coding 3
Commercial name : Dolby Digital
Codec ID: A_AC3
Duration: 1 h 24 min
Bit rate mode : Constant
Bit rate: 448 kb/s
Channel(s): 6 channels
Channel layout: L R C LFE Ls Rs
Sampling rate : 48.0 kHz
Frame rate: 31.250 FPS (1536 SPF)
Bit depth : 16 bits
Compression mode: Lossy
Stream size : 271 MiB (10%)
Title : AC3_5.1_Bluray_Eng
Language: English
Service kind: Complete Main
Default : No
Forced: No

Menu
00:00:00.000: :Chapter 1
00:03:45.308: :Chapter 2
00:07:30.951: :Chapter 3
00:10:39.514: :Chapter 4
00:12:15.109: :Chapter 5
00:14:34.332: :Chapter 6
00:15:55.413: :Chapter 7
00:18:49.170: :Chapter 8
00:20:47.663: :Chapter 9
00:22:40.192: :Chapter 10
00:24:16.163: :Chapter 11
00:26:37.096: :Chapter 12
00:28:19.448: :Chapter 13
00:33:44.356: :Chapter 14
00:39:48.803: :Chapter 15
00:44:43.347: :Chapter 16
00:46:31.664: :Chapter 17
00:48:41.419: :Chapter 18
00:54:26.472: :Chapter 19
00:57:13.722: :Chapter 20
01:01:38.320: :Chapter 21
01:03:10.495: :Chapter 22
01:05:59.456: :Chapter 23
01:07:13.446: :Chapter 24
01:08:19.596: :Chapter 25
01:09:34.837: :Chapter 26
01:10:19.966: :Chapter 27
01:11:23.821: :Chapter 28
01:15:26.564: :Chapter 29
01:17:51.083: :Chapter 30

Download Links

CONTRASEÑA PARA DESCOMPRIMIR

APORTES NUEVOS

cinemaniahdd.com

APORTES VIEJOS

CinemaniaHD.org

COMPRA O RENUEVA TU PREMIUM DE UPLOADED DESDE EL SIGUIENTE LINK:

http://ul.to/ref/9821430

SI GUSTAS PUEDES SEGUIRNOS EN LAS REDES SOCIALES

Facebook

Twitter

Post Relacionados