Siberia (2018) Full 1080p Latino

Cuando el socio ruso de un tratante de diamantes norteamericano (Keanu Reaves) desaparece, éste viaja a Siberia en su búsqueda, donde conoce a Katya (Ana Ularu), la joven propietaria de un café.



Titulo original Siberia
Audio Español Latino AC3 2.0 iTUNES - Ingles DTS 5.1 BURAY
Calidad: Full 1080p Resolucion: 1920x1080p Formato: MKV
Encoder: Dracarys Peso: 4.16 GiB Duracion: 1h 44m
Subtitulos: Español Latino PGS - Ingles PGS
  • No hay video embed

Format                                   : Matroska
Format version                           : Version 4 / Version 2
File size                                : 4.16 GiB
Duration                                 : 1 h 44 min
Overall bit rate                         : 5 684 kb/s
Movie name                               : CinemaniaHDD.net
Encoded date                             : UTC 2018-10-07 04:46:10 / UTC 2018-09-17T03:32:34Z
Writing application                      : mkvmerge v15.0.0 ('Duel with the Devil') 64-bit
Writing library                          : libebml v1.3.5 + libmatroska v1.4.5 / Lavf57.7.2

Video
ID                                       : 1
Format                                   : AVC
Format/Info                              : Advanced Video Codec
Format profile                           : High@L4.1
Format settings                          : CABAC / 4 Ref Frames
Format settings, CABAC                   : Yes
Format settings, RefFrames               : 4 frames
Codec ID                                 : V_MPEG4/ISO/AVC
Duration                                 : 1 h 44 min
Bit rate                                 : 3 806 kb/s
Width                                    : 1 920 pixels
Height                                   : 1 080 pixels
Display aspect ratio                     : 16:9
Frame rate mode                          : Constant
Frame rate                               : 23.976 (24000/1001) FPS
Color space                              : YUV
Chroma subsampling                       : 4:2:0
Bit depth                                : 8 bits
Scan type                                : Progressive
Bits/(Pixel*Frame)                       : 0.077
Stream size                              : 2.78 GiB (67%)
Writing library                          : x264 core 148 r2708 86b7198
Encoding settings                        : cabac=1 / ref=4 / deblock=1:0:0 / analyse=0x3:0x133 / me=esa / subme=10 / psy=1 / psy_rd=1.00:0.00 / mixed_ref=1 / me_range=24 / chroma_me=1 / trellis=2 / 8x8dct=1 / cqm=0 / deadzone=21,11 / fast_pskip=1 / chroma_qp_offset=-2 / threads=34 / lookahead_threads=5 / sliced_threads=0 / nr=0 / decimate=1 / interlaced=0 / bluray_compat=0 / constrained_intra=0 / bframes=8 / b_pyramid=2 / b_adapt=2 / b_bias=0 / direct=3 / weightb=1 / open_gop=0 / weightp=2 / keyint=240 / keyint_min=24 / scenecut=40 / intra_refresh=0 / rc_lookahead=60 / rc=crf / mbtree=1 / crf=20.0 / qcomp=0.60 / qpmin=0 / qpmax=69 / qpstep=4 / vbv_maxrate=62500 / vbv_bufsize=78125 / crf_max=0.0 / nal_hrd=none / filler=0 / ip_ratio=1.40 / aq=1:1.00
Language                                 : English
Default                                  : Yes
Forced                                   : No
Color range                              : Limited
Color primaries                          : BT.709
Transfer characteristics                 : BT.709
Matrix coefficients                      : BT.709
Statistics Tags Issue                    : mkvmerge v15.0.0 ('Duel with the Devil') 64-bit 2018-10-07 04:46:10 / mkvmerge v15.0.0 ('Duel with the Devil') 64-bit 2018-10-07 04:46:10 / UTC 2018-09-17T03:32:34Z
FromStats_BitRate                        : 3896656
FromStats_Duration                       : 01:44:42.276000000
FromStats_FrameCount                     : 150624
FromStats_StreamSize                     : 3059984187

Audio #1
ID                                       : 2
Format                                   : AC-3
Format/Info                              : Audio Coding 3
Format settings, Endianness              : Big
Codec ID                                 : A_AC3
Duration                                 : 1 h 44 min
Bit rate mode                            : Constant
Bit rate                                 : 256 kb/s
Channel(s)                               : 2 channels
Channel positions                        : Front: L R
Sampling rate                            : 48.0 kHz
Frame rate                               : 31.250 FPS (1536 SPF)
Bit depth                                : 16 bits
Compression mode                         : Lossy
Stream size                              : 192 MiB (5%)
Language                                 : Spanish
Service kind                             : Complete Main
Default                                  : Yes
Forced                                   : No
Statistics Tags Issue                    : mkvmerge v15.0.0 ('Duel with the Devil') 64-bit 2018-10-07 04:46:10 / mkvmerge v15.0.0 ('Duel with the Devil') 64-bit 2018-10-07 04:46:10 / UTC 2018-09-17T03:32:34Z
FromStats_BitRate                        : 256000
FromStats_Duration                       : 01:44:42.368000000
FromStats_FrameCount                     : 196324
FromStats_StreamSize                     : 201035776

Audio #2
ID                                       : 3
Format                                   : DTS
Format/Info                              : Digital Theater Systems
Mode                                     : 16
Format settings, Endianness              : Big
Codec ID                                 : A_DTS
Duration                                 : 1 h 44 min
Bit rate mode                            : Constant
Bit rate                                 : 1 509 kb/s
Channel(s)                               : 6 channels
Channel positions                        : Front: L C R, Side: L R, LFE
Sampling rate                            : 48.0 kHz
Frame rate                               : 93.750 FPS (512 SPF)
Bit depth                                : 24 bits
Compression mode                         : Lossy
Delay relative to video                  : 53 ms
Stream size                              : 1.10 GiB (27%)
Language                                 : English
Default                                  : No
Forced                                   : No
Statistics Tags Issue                    : mkvmerge v15.0.0 ('Duel with the Devil') 64-bit 2018-10-07 04:46:10 / mkvmerge v15.0.0 ('Duel with the Devil') 64-bit 2018-10-07 04:46:10 / UTC 2018-09-17T03:32:34Z
FromStats_BitRate                        : 1508999
FromStats_Duration                       : 01:44:42.262000000
FromStats_FrameCount                     : 588962
FromStats_StreamSize                     : 1184991544

Text #1
ID                                       : 4
Format                                   : UTF-8
Codec ID                                 : S_TEXT/UTF8
Codec ID/Info                            : UTF-8 Plain Text
Language                                 : Spanish
Default                                  : No
Forced                                   : No
Statistics Tags Issue                    : mkvmerge v15.0.0 ('Duel with the Devil') 64-bit 2018-10-07 04:46:10 / mkvmerge v15.0.0 ('Duel with the Devil') 64-bit 2018-10-07 04:46:10 / UTC 2018-09-17T03:32:34Z
FromStats_BitRate                        : 37
FromStats_Duration                       : 01:38:16.659000000
FromStats_FrameCount                     : 879
FromStats_StreamSize                     : 27539

Text #2
ID                                       : 5
Format                                   : PGS
Muxing mode                              : zlib
Codec ID                                 : S_HDMV/PGS
Codec ID/Info                            : Picture based subtitle format used on BDs/HD-DVDs
Language                                 : English
Default                                  : No
Forced                                   : No
Statistics Tags Issue                    : mkvmerge v15.0.0 ('Duel with the Devil') 64-bit 2018-10-07 04:46:10 / mkvmerge v15.0.0 ('Duel with the Devil') 64-bit 2018-10-07 04:46:10 / UTC 2018-09-17T03:32:34Z
FromStats_BitRate                        : 21004
FromStats_Duration                       : 01:37:27.008000000
FromStats_FrameCount                     : 1613
FromStats_StreamSize                     : 15351913

Text #3
ID                                       : 6
Format                                   : PGS
Muxing mode                              : zlib
Codec ID                                 : S_HDMV/PGS
Codec ID/Info                            : Picture based subtitle format used on BDs/HD-DVDs
Language                                 : Spanish
Default                                  : Yes
Forced                                   : Yes
Statistics Tags Issue                    : mkvmerge v15.0.0 ('Duel with the Devil') 64-bit 2018-10-07 04:46:10 / mkvmerge v15.0.0 ('Duel with the Devil') 64-bit 2018-10-07 04:46:10 / UTC 2018-09-17T03:32:34Z
FromStats_BitRate                        : 22719
FromStats_Duration                       : 01:32:56.738000000
FromStats_FrameCount                     : 1696
FromStats_StreamSize                     : 15837276

Menu
00:00:00.000                             : :Chapter 1
00:09:22.937                             : :Chapter 2
00:17:40.351                             : :Chapter 3
00:22:02.238                             : :Chapter 4
00:29:52.499                             : :Chapter 5
00:38:31.226                             : :Chapter 6
00:44:18.739                             : :Chapter 7
00:51:32.381                             : :Chapter 8
00:57:34.409                             : :Chapter 9
01:04:05.717                             : :Chapter 10
01:13:01.544                             : :Chapter 11
01:18:49.558                             : :Chapter 12
01:23:58.617                             : :Chapter 13
01:28:55.288                             : :Chapter 14
01:32:42.307                             : :Chapter 15
01:36:17.313                             : :Chapter 16

 

Download Links

CONTRASEÑA PARA DESCOMPRIMIR

APORTES NUEVOS

cinemaniahdd.com

APORTES VIEJOS

CinemaniaHD.org

COMPRA O RENUEVA TU PREMIUM DE UPLOADED DESDE EL SIGUIENTE LINK:

http://ul.to/ref/9821430

SI GUSTAS PUEDES SEGUIRNOS EN LAS REDES SOCIALES

Facebook

Twitter

Post Relacionados