Sicario 2 soldado (2018) Full 1080p Latino [Placebo]

La guerra contra los cárteles de la droga se ha intensificado en la frontera entre EE.UU. y México a medida que éstos se han metido en el negocio de tráfico de personas, introduciendo en suelo americano a terroristas islámicos. Para hacer frente a esta nueva guerra sucia, el agente federal Matt Graver (Josh Brolin) planea una idea para que los carteles se enfrenten entre ellos. Para ello volverá a reclutar para la peligrosa misión al volátil mercenario Alejandro Gillick (Benicio del Toro)… Secuela de ‘Sicario’ (2015).



Titulo original Sicario: Day of the Soldado
Audio Español Latino AC3 5.1 DVD - Ingles DTS 5.1 BLURAY
Calidad: Full 1080p Resolucion: 1920x1080p Formato: MKV
Encoder: Dracarys Peso: 4.67 GiB Duracion: 2h 2m
Subtitulos: Español Latino PGS - Ingles PGS
  • No hay video embed

Format                                   : Matroska
Format version                           : Version 4 / Version 2
File size                                : 4.67 GiB
Duration                                 : 2 h 2 min
Overall bit rate                         : 5 463 kb/s
Movie name                               : CinemaniaHDD.net
Encoded date                             : UTC 2018-10-11 16:49:09 / UTC 2018-10-10T02:02:25Z
Writing application                      : mkvmerge v15.0.0 ('Duel with the Devil') 64-bit
Writing library                          : libebml v1.3.5 + libmatroska v1.4.5 / Lavf57.7.2

Video
ID                                       : 1
Format                                   : AVC
Format/Info                              : Advanced Video Codec
Format profile                           : High@L4.1
Format settings                          : CABAC / 4 Ref Frames
Format settings, CABAC                   : Yes
Format settings, RefFrames               : 4 frames
Codec ID                                 : V_MPEG4/ISO/AVC
Duration                                 : 2 h 2 min
Bit rate                                 : 3 397 kb/s
Width                                    : 1 920 pixels
Height                                   : 1 080 pixels
Display aspect ratio                     : 16:9
Frame rate mode                          : Constant
Frame rate                               : 23.976 (24000/1001) FPS
Color space                              : YUV
Chroma subsampling                       : 4:2:0
Bit depth                                : 8 bits
Scan type                                : Progressive
Bits/(Pixel*Frame)                       : 0.068
Stream size                              : 2.90 GiB (62%)
Writing library                          : x264 core 148 r2708 86b7198
Encoding settings                        : cabac=1 / ref=4 / deblock=1:0:0 / analyse=0x3:0x133 / me=tesa / subme=11 / psy=1 / psy_rd=1.00:0.00 / mixed_ref=1 / me_range=24 / chroma_me=1 / trellis=2 / 8x8dct=1 / cqm=0 / deadzone=21,11 / fast_pskip=0 / chroma_qp_offset=-2 / threads=34 / lookahead_threads=8 / sliced_threads=0 / nr=0 / decimate=1 / interlaced=0 / bluray_compat=0 / constrained_intra=0 / bframes=16 / b_pyramid=2 / b_adapt=2 / b_bias=0 / direct=3 / weightb=1 / open_gop=0 / weightp=2 / keyint=240 / keyint_min=24 / scenecut=40 / intra_refresh=0 / rc_lookahead=60 / rc=crf / mbtree=1 / crf=20.0 / qcomp=0.60 / qpmin=0 / qpmax=69 / qpstep=4 / vbv_maxrate=62500 / vbv_bufsize=78125 / crf_max=0.0 / nal_hrd=none / filler=0 / ip_ratio=1.40 / aq=1:1.00
Language                                 : English
Default                                  : Yes
Forced                                   : No
Color range                              : Limited
Color primaries                          : BT.709
Transfer characteristics                 : BT.709
Matrix coefficients                      : BT.709
Statistics Tags Issue                    : mkvmerge v15.0.0 ('Duel with the Devil') 64-bit 2018-10-11 16:49:09 / mkvmerge v15.0.0 ('Duel with the Devil') 64-bit 2018-10-11 16:49:09 / UTC 2018-10-10T02:02:25Z
FromStats_BitRate                        : 3483303
FromStats_Duration                       : 02:02:24.296000000
FromStats_FrameCount                     : 176087
FromStats_StreamSize                     : 3197801651

Audio #1
ID                                       : 2
Format                                   : AC-3
Format/Info                              : Audio Coding 3
Format settings, Endianness              : Big
Codec ID                                 : A_AC3
Duration                                 : 2 h 2 min
Bit rate mode                            : Constant
Bit rate                                 : 448 kb/s
Channel(s)                               : 6 channels
Channel positions                        : Front: L C R, Side: L R, LFE
Sampling rate                            : 48.0 kHz
Frame rate                               : 31.250 FPS (1536 SPF)
Bit depth                                : 16 bits
Compression mode                         : Lossy
Stream size                              : 392 MiB (8%)
Language                                 : Spanish
Service kind                             : Complete Main
Default                                  : Yes
Forced                                   : No
Statistics Tags Issue                    : mkvmerge v15.0.0 ('Duel with the Devil') 64-bit 2018-10-11 16:49:09 / mkvmerge v15.0.0 ('Duel with the Devil') 64-bit 2018-10-11 16:49:09 / UTC 2018-10-10T02:02:25Z
FromStats_BitRate                        : 448000
FromStats_Duration                       : 02:02:24.320000000
FromStats_FrameCount                     : 229510
FromStats_StreamSize                     : 411281920

Audio #2
ID                                       : 3
Format                                   : DTS
Format/Info                              : Digital Theater Systems
Mode                                     : 16
Format settings, Endianness              : Big
Codec ID                                 : A_DTS
Duration                                 : 2 h 2 min
Bit rate mode                            : Constant
Bit rate                                 : 1 509 kb/s
Channel(s)                               : 6 channels
Channel positions                        : Front: L C R, Side: L R, LFE
Sampling rate                            : 48.0 kHz
Frame rate                               : 93.750 FPS (512 SPF)
Bit depth                                : 16 bits
Compression mode                         : Lossy
Stream size                              : 1.29 GiB (28%)
Language                                 : English
Default                                  : No
Forced                                   : No
Statistics Tags Issue                    : mkvmerge v15.0.0 ('Duel with the Devil') 64-bit 2018-10-11 16:49:09 / mkvmerge v15.0.0 ('Duel with the Devil') 64-bit 2018-10-11 16:49:09 / UTC 2018-10-10T02:02:25Z
FromStats_BitRate                        : 1508999
FromStats_Duration                       : 02:02:24.331000000
FromStats_FrameCount                     : 688531
FromStats_StreamSize                     : 1385324372

Text #1
ID                                       : 4
Format                                   : PGS
Muxing mode                              : zlib
Codec ID                                 : S_HDMV/PGS
Codec ID/Info                            : Picture based subtitle format used on BDs/HD-DVDs
Language                                 : English
Default                                  : No
Forced                                   : No
Statistics Tags Issue                    : mkvmerge v15.0.0 ('Duel with the Devil') 64-bit 2018-10-11 16:49:09 / mkvmerge v15.0.0 ('Duel with the Devil') 64-bit 2018-10-11 16:49:09 / UTC 2018-10-10T02:02:25Z
FromStats_BitRate                        : 24064
FromStats_Duration                       : 02:01:22.400000000
FromStats_FrameCount                     : 2097
FromStats_StreamSize                     : 21906204

Text #2
ID                                       : 5
Format                                   : PGS
Muxing mode                              : zlib
Codec ID                                 : S_HDMV/PGS
Codec ID/Info                            : Picture based subtitle format used on BDs/HD-DVDs
Language                                 : Spanish
Default                                  : No
Forced                                   : No
Statistics Tags Issue                    : mkvmerge v15.0.0 ('Duel with the Devil') 64-bit 2018-10-11 16:49:09 / mkvmerge v15.0.0 ('Duel with the Devil') 64-bit 2018-10-11 16:49:09 / UTC 2018-10-10T02:02:25Z
FromStats_BitRate                        : 13915
FromStats_Duration                       : 02:01:20.190000000
FromStats_FrameCount                     : 1334
FromStats_StreamSize                     : 12663525

Menu
00:00:00.000                             : :Chapter 1
00:06:38.189                             : :Chapter 2
00:14:45.593                             : :Chapter 3
00:18:48.502                             : :Chapter 4
00:27:08.335                             : :Chapter 5
00:34:08.964                             : :Chapter 6
00:42:28.671                             : :Chapter 7
00:51:10.442                             : :Chapter 8
01:00:58.071                             : :Chapter 9
01:09:20.114                             : :Chapter 10
01:14:26.796                             : :Chapter 11
01:23:24.958                             : :Chapter 12
01:28:41.358                             : :Chapter 13
01:35:38.900                             : :Chapter 14
01:41:44.348                             : :Chapter 15
01:46:15.494                             : :Chapter 16

 

Download Links

CONTRASEÑA PARA DESCOMPRIMIR

APORTES NUEVOS

cinemaniahdd.com

APORTES VIEJOS

CinemaniaHD.org

COMPRA O RENUEVA TU PREMIUM DE UPLOADED DESDE EL SIGUIENTE LINK:

http://ul.to/ref/9821430

SI GUSTAS PUEDES SEGUIRNOS EN LAS REDES SOCIALES

Facebook

Twitter

Post Relacionados