Slender Man (2018) Full 1080p Latino

“El hombre más pálido. El traje más oscuro. Más grande que el gigante más alto. Ten miedo de este hombre: Slender Man ya que puede hacer lo que nadie puede”. Estas son algunas de las características que usuarios del internet dieron al personaje ficticio de terror Slender Man (el hombre delgado). Ahora la criatura llega a la gran pantalla con este film de terror, que nace de una de las leyendas urbanas de la web más populares, en base de una recopilación de imágenes en el foro Something Awful y, hoy en día, pertenece a la cultura “creepypasta”.



Titulo Original Slender Man
Año 2018-08-10
Duracion 1h 33m
Director
Reparto , , , , , , , , , , , ,
Productora
Genero
Titulo original Slender Man
Audio Español Latino AC3 5.1 BLURAY - Ingles DTS 5.1 BLURAY
Calidad: Full 1080p Resolucion: 1920x1080p Formato: MKV
Encoder: Dracarys Peso: 2.54 GiB Duracion: 1h 33m
Subtitulos: Español Latino PGS - Ingles PGS
  • No hay video embed

Format                                 : Matroska
Format version                         : Version 4 / Version 2
File size                              : 2.54 GiB
Duration                               : 1 h 33 min
Overall bit rate                       : 3 906 kb/s
Movie name                             : CinemaniaHDD.net
Encoded date                           : UTC 2018-10-25 01:34:28 / UTC 2018-10-24T17:17:04Z
Writing application                    : mkvmerge v15.0.0 ('Duel with the Devil') 64-bit
Writing library                        : libebml v1.3.5 + libmatroska v1.4.5 / Lavf57.7.2

Video
ID                                     : 1
Format                                 : AVC
Format/Info                            : Advanced Video Codec
Format profile                         : High@L4.1
Format settings                        : CABAC / 4 Ref Frames
Format settings, CABAC                 : Yes
Format settings, RefFrames             : 4 frames
Codec ID                               : V_MPEG4/ISO/AVC
Duration                               : 1 h 33 min
Bit rate                               : 1 679 kb/s
Width                                  : 1 920 pixels
Height                                 : 1 080 pixels
Display aspect ratio                   : 16:9
Frame rate mode                        : Constant
Frame rate                             : 23.976 (24000/1001) FPS
Color space                            : YUV
Chroma subsampling                     : 4:2:0
Bit depth                              : 8 bits
Scan type                              : Progressive
Bits/(Pixel*Frame)                     : 0.034
Stream size                            : 1.09 GiB (43%)
Writing library                        : x264 core 148 r2708 86b7198
Encoding settings                      : cabac=1 / ref=4 / deblock=1:0:0 / analyse=0x3:0x133 / me=esa / subme=10 / psy=1 / psy_rd=1.00:0.00 / mixed_ref=1 / me_range=24 / chroma_me=1 / trellis=2 / 8x8dct=1 / cqm=0 / deadzone=21,11 / fast_pskip=1 / chroma_qp_offset=-2 / threads=34 / lookahead_threads=5 / sliced_threads=0 / nr=0 / decimate=1 / interlaced=0 / bluray_compat=0 / constrained_intra=0 / bframes=8 / b_pyramid=2 / b_adapt=2 / b_bias=0 / direct=3 / weightb=1 / open_gop=0 / weightp=2 / keyint=240 / keyint_min=24 / scenecut=40 / intra_refresh=0 / rc_lookahead=60 / rc=crf / mbtree=1 / crf=20.0 / qcomp=0.60 / qpmin=0 / qpmax=69 / qpstep=4 / vbv_maxrate=62500 / vbv_bufsize=78125 / crf_max=0.0 / nal_hrd=none / filler=0 / ip_ratio=1.40 / aq=1:1.00
Language                               : English
Default                                : Yes
Forced                                 : No
Color range                            : Limited
Color primaries                        : BT.709
Transfer characteristics               : BT.709
Matrix coefficients                    : BT.709
Statistics Tags Issue                  : mkvmerge v15.0.0 ('Duel with the Devil') 64-bit 2018-10-25 01:34:28 / mkvmerge v15.0.0 ('Duel with the Devil') 64-bit 2018-10-25 01:34:28 / UTC 2018-10-24T17:17:04Z
FromStats_BitRate                      : 1727364
FromStats_Duration                     : 01:33:10.544000000
FromStats_FrameCount                   : 134039
FromStats_StreamSize                   : 1207113406

Audio #1
ID                                     : 2
Format                                 : AC-3
Format/Info                            : Audio Coding 3
Format settings, Endianness            : Big
Codec ID                               : A_AC3
Duration                               : 1 h 33 min
Bit rate mode                          : Constant
Bit rate                               : 640 kb/s
Channel(s)                             : 6 channels
Channel positions                      : Front: L C R, Side: L R, LFE
Sampling rate                          : 48.0 kHz
Frame rate                             : 31.250 FPS (1536 SPF)
Bit depth                              : 16 bits
Compression mode                       : Lossy
Delay relative to video                : 6 ms
Stream size                            : 427 MiB (16%)
Language                               : Spanish
Service kind                           : Complete Main
Default                                : Yes
Forced                                 : No
Statistics Tags Issue                  : mkvmerge v15.0.0 ('Duel with the Devil') 64-bit 2018-10-25 01:34:28 / mkvmerge v15.0.0 ('Duel with the Devil') 64-bit 2018-10-25 01:34:28 / UTC 2018-10-24T17:17:04Z
FromStats_BitRate                      : 640000
FromStats_Duration                     : 01:33:10.592000000
FromStats_FrameCount                   : 174706
FromStats_StreamSize                   : 447247360

Audio #2
ID                                     : 3
Format                                 : DTS
Format/Info                            : Digital Theater Systems
Mode                                   : 16
Format settings, Endianness            : Big
Codec ID                               : A_DTS
Duration                               : 1 h 33 min
Bit rate mode                          : Constant
Bit rate                               : 1 509 kb/s
Channel(s)                             : 6 channels
Channel positions                      : Front: L C R, Side: L R, LFE
Sampling rate                          : 48.0 kHz
Frame rate                             : 93.750 FPS (512 SPF)
Bit depth                              : 16 bits
Compression mode                       : Lossy
Stream size                            : 1 006 MiB (39%)
Language                               : English
Default                                : No
Forced                                 : No
Statistics Tags Issue                  : mkvmerge v15.0.0 ('Duel with the Devil') 64-bit 2018-10-25 01:34:28 / mkvmerge v15.0.0 ('Duel with the Devil') 64-bit 2018-10-25 01:34:28 / UTC 2018-10-24T17:17:04Z
FromStats_BitRate                      : 1508999
FromStats_Duration                     : 01:33:10.582000000
FromStats_FrameCount                   : 524117
FromStats_StreamSize                   : 1054523404

Text #1
ID                                     : 4
Format                                 : PGS
Muxing mode                            : zlib
Codec ID                               : S_HDMV/PGS
Codec ID/Info                          : Picture based subtitle format used on BDs/HD-DVDs
Language                               : English
Default                                : No
Forced                                 : No
Statistics Tags Issue                  : mkvmerge v15.0.0 ('Duel with the Devil') 64-bit 2018-10-25 01:34:28 / mkvmerge v15.0.0 ('Duel with the Devil') 64-bit 2018-10-25 01:34:28 / UTC 2018-10-24T17:17:04Z
FromStats_BitRate                      : 29693
FromStats_Duration                     : 01:26:10.791000000
FromStats_FrameCount                   : 1640
FromStats_StreamSize                   : 19192535

Text #2
ID                                     : 5
Format                                 : PGS
Muxing mode                            : zlib
Codec ID                               : S_HDMV/PGS
Codec ID/Info                          : Picture based subtitle format used on BDs/HD-DVDs
Language                               : Spanish
Default                                : No
Forced                                 : No
Statistics Tags Issue                  : mkvmerge v15.0.0 ('Duel with the Devil') 64-bit 2018-10-25 01:34:28 / mkvmerge v15.0.0 ('Duel with the Devil') 64-bit 2018-10-25 01:34:28 / UTC 2018-10-24T17:17:04Z
FromStats_BitRate                      : 22285
FromStats_Duration                     : 01:31:29.693000000
FromStats_FrameCount                   : 1352
FromStats_StreamSize                   : 15292430

Menu
00:00:00.000                           : :Chapter 1
00:04:42.783                           : :Chapter 2
00:12:01.846                           : :Chapter 3
00:15:20.420                           : :Chapter 4
00:22:07.368                           : :Chapter 5
00:28:44.264                           : :Chapter 6
00:32:14.599                           : :Chapter 7
00:40:31.763                           : :Chapter 8
00:45:50.790                           : :Chapter 9
00:52:40.199                           : :Chapter 10
00:55:33.956                           : :Chapter 11
01:00:42.681                           : :Chapter 12
01:05:19.624                           : :Chapter 13
01:08:53.963                           : :Chapter 14
01:15:11.340                           : :Chapter 15
01:21:12.743                           : :Chapter 16

 

Download Links

CONTRASEÑA PARA DESCOMPRIMIR

APORTES NUEVOS

cinemaniahdd.com

APORTES VIEJOS

CinemaniaHD.org

COMPRA O RENUEVA TU PREMIUM DE UPLOADED DESDE EL SIGUIENTE LINK:

http://ul.to/ref/9821430

SI GUSTAS PUEDES SEGUIRNOS EN LAS REDES SOCIALES

Facebook

Twitter

Post Relacionados