Smallville (2006) Temporada 6 Full 1080p Latino

La temporada 6 de Smallville se estrenó el Septiembre 28, 2006.

Smallville (2006) Temporada 6 Full 1080p Latino; Mega, Google Drive. Sucede poco después del fin de la Quinta Temporada.Trata sobre el enfrentamiento entre Clark,(Kal-El) y Zod, quien arroja a Clark a la Zona Fantasma, y trata también sobre el enfrentamiento entre Clark y los criminales que escaparon de la Zona Fantasma el día que Clark escapó de allí.Además,un secreto de Chloe es revelado,y esta temporada relata la relación amorosa de Lana Lang y Lex Luthor. Mientras tanto, teniendo el control sobre el cuerpo de Lex (Michael Rosenbaum), Zod mantiene a Lana (Kristin Kreuk) cautiva con la intención de exigirle concebir a su heredero y comienza sus planes de convertir la Tierra en el planeta Krypton. Cuando Clark logra salir de la zona fantasma libera por accidente a cuatro bandidos alrededor del planeta.
Fuente Audio Latino: REMREM



Titulo Original Smallville
Año 2001-10-16
Duracion 1h 0m
Director
Reparto , , , , ,
Productora
Genero
Titulo original Smallville
Audio Español Latino AC3 2.0 Capturado - Ingles AC3 5.1 BLURAY
Calidad: Full 1080p Resolucion: 1920x1080p Formato: MKV
Encoder: chesse92 Peso: 2.50 - 3.3 GiB Aprox C/U. Duracion: 1h 0m
Subtitulos: Español Latino PGS - Ingles PGS
  • No hay video embed

Smallville S06E01 Full 1080p Latino.mkv
Format: Matroska
Format version: Version 4 / Version 2
File size : 3.28 GiB
Duration: 42 min 46 s
Overall bit rate: 11.0 Mb/s
Movie name: CinemaniaHDD.net
Encoded date: UTC 2018-10-02 01:01:24 / UTC 2018-09-13T13:13:17Z
Writing application : mkvmerge v25.0.0 ('Prog Noir') 64-bit
Writing library : libebml v1.3.6 + libmatroska v1.4.9 / Lavf57.7.2

Video
ID: 1
Format: AVC
Format/Info : Advanced Video Codec
Format profile: High@L4.1
Format settings : CABAC / 4 Ref Frames
Format settings, CABAC: Yes
Format settings, RefFrames: 4 frames
Codec ID: V_MPEG4/ISO/AVC
Duration: 42 min 46 s
Bit rate: 9 932 kb/s
Width : 1 920 pixels
Height: 1 080 pixels
Display aspect ratio: 16:9
Frame rate mode : Constant
Frame rate: 23.976 (24000/1001) FPS
Color space : YUV
Chroma subsampling: 4:2:0
Bit depth : 8 bits
Scan type : Progressive
Bits/(Pixel*Frame): 0.200
Stream size : 2.97 GiB (90%)
Title : HD1080p [Bluray]
Writing library : x264 core 155 r2893 b00bcaf
Encoding settings : cabac=1 / ref=4 / deblock=1:0:0 / analyse=0x3:0x133 / me=esa / subme=10 / psy=1 / psy_rd=1.00:0.00 / mixed_ref=1 / me_range=24 / chroma_me=1 / trellis=2 / 8x8dct=1 / cqm=0 / deadzone=21,11 / fast_pskip=1 / chroma_qp_offset=-2 / threads=34 / lookahead_threads=5 / sliced_threads=0 / nr=0 / decimate=1 / interlaced=0 / bluray_compat=0 / constrained_intra=0 / bframes=8 / b_pyramid=2 / b_adapt=2 / b_bias=0 / direct=3 / weightb=1 / open_gop=0 / weightp=2 / keyint=240 / keyint_min=24 / scenecut=40 / intra_refresh=0 / rc_lookahead=60 / rc=crf / mbtree=1 / crf=20.0 / qcomp=0.60 / qpmin=0 / qpmax=69 / qpstep=4 / vbv_maxrate=62500 / vbv_bufsize=78125 / crf_max=0.0 / nal_hrd=none / filler=0 / ip_ratio=1.40 / aq=1:1.00
Default : Yes
Forced: No
Color range : Limited
Color primaries : BT.709
Transfer characteristics: BT.709
Matrix coefficients : BT.709
Statistics Tags Issue : mkvmerge v25.0.0 ('Prog Noir') 64-bit 2018-10-02 01:01:24 / mkvmerge v25.0.0 ('Prog Noir') 64-bit 2018-10-02 01:01:24 / UTC 2018-09-13T13:13:17Z
FromStats_BitRate : 10128346
FromStats_Duration: 00:42:46.940000000
FromStats_FrameCount: 61545
FromStats_StreamSize: 3249857131

Audio #1
ID: 2
Format: AC-3
Format/Info : Audio Coding 3
Format settings, Endianness : Big
Codec ID: A_AC3
Duration: 42 min 46 s
Bit rate mode : Constant
Bit rate: 192 kb/s
Channel(s): 2 channels
Channel positions : Front: L R
Sampling rate : 48.0 kHz
Frame rate: 31.250 FPS (1536 SPF)
Bit depth : 16 bits
Compression mode: Lossy
Stream size : 58.8 MiB (2%)
Title : AC3_2.0_TV_Esp
Language: Spanish
Service kind: Complete Main
Default : Yes
Forced: Yes
Statistics Tags Issue : mkvmerge v25.0.0 ('Prog Noir') 64-bit 2018-10-02 01:01:24 / mkvmerge v25.0.0 ('Prog Noir') 64-bit 2018-10-02 01:01:24 / UTC 2018-09-13T13:13:17Z
FromStats_BitRate : 192000
FromStats_Duration: 00:42:46.976000000
FromStats_FrameCount: 80218
FromStats_StreamSize: 61607424

Audio #2
ID: 3
Format: AC-3
Format/Info : Audio Coding 3
Format settings, Endianness : Big
Codec ID: A_AC3
Duration: 42 min 46 s
Bit rate mode : Constant
Bit rate: 640 kb/s
Channel(s): 6 channels
Channel positions : Front: L C R, Side: L R, LFE
Sampling rate : 48.0 kHz
Frame rate: 31.250 FPS (1536 SPF)
Bit depth : 16 bits
Compression mode: Lossy
Stream size : 196 MiB (6%)
Title : AC3_5.1_Bluray_Eng
Language: English
Service kind: Complete Main
Default : No
Forced: No
Statistics Tags Issue : mkvmerge v25.0.0 ('Prog Noir') 64-bit 2018-10-02 01:01:24 / mkvmerge v25.0.0 ('Prog Noir') 64-bit 2018-10-02 01:01:24 / UTC 2018-09-13T13:13:17Z
FromStats_BitRate : 640000
FromStats_Duration: 00:42:46.944000000
FromStats_FrameCount: 80217
FromStats_StreamSize: 205355520

Text #1
ID: 4
Format: PGS
Muxing mode : zlib
Codec ID: S_HDMV/PGS
Codec ID/Info : Picture based subtitle format used on BDs/HD-DVDs
Title : Sub_Esp [PGS]
Language: Spanish
Default : No
Forced: No
Statistics Tags Issue : mkvmerge v25.0.0 ('Prog Noir') 64-bit 2018-10-02 01:01:24 / mkvmerge v25.0.0 ('Prog Noir') 64-bit 2018-10-02 01:01:24 / UTC 2018-09-13T13:13:17Z
FromStats_BitRate : 22363
FromStats_Duration: 00:42:43.519000000
FromStats_FrameCount: 766
FromStats_StreamSize: 7166238

Text #2
ID: 5
Format: PGS
Muxing mode : zlib
Codec ID: S_HDMV/PGS
Codec ID/Info : Picture based subtitle format used on BDs/HD-DVDs
Title : Sub_Eng [PGS]
Language: English
Default : No
Forced: No
Statistics Tags Issue : mkvmerge v25.0.0 ('Prog Noir') 64-bit 2018-10-02 01:01:24 / mkvmerge v25.0.0 ('Prog Noir') 64-bit 2018-10-02 01:01:24 / UTC 2018-09-13T13:13:17Z
FromStats_BitRate : 22833
FromStats_Duration: 00:42:43.645000000
FromStats_FrameCount: 752
FromStats_StreamSize: 7317158

Menu
00:00:00.000: :Chapter 1
00:04:36.276: :Chapter 2
00:14:57.647: :Chapter 3
00:22:42.152: :Chapter 4
00:29:02.491: :Chapter 5
00:33:50.195: :Chapter 6
00:42:15.158: :Chapter 7

Download Links

CONTRASEÑA PARA DESCOMPRIMIR

APORTES NUEVOS

cinemaniahdd.com

APORTES VIEJOS

CinemaniaHD.org

COMPRA O RENUEVA TU PREMIUM DE UPLOADED DESDE EL SIGUIENTE LINK:

http://ul.to/ref/9821430

SI GUSTAS PUEDES SEGUIRNOS EN LAS REDES SOCIALES

Facebook

Twitter

Post Relacionados