Sola contra el poder (2016) Full 1080p Latino

Elizabeth Sloane (Jessica Chastain) es una implacable y ambiciosa ejecutiva que intenta que fructifique una legislación a favor del control de armas en Washington DC. Para ello intentará usar todos los recursos a su alcance. En las altas esferas del mundo político y empresarial Sloane tiene una reputación formidable. Conocida por su astucia y sus éxitos sin parangón, siempre ha hecho lo que fuera necesario para ganar. Pero cuando se enfrenta al oponente más poderoso de su carrera, se da cuenta de que la victoria puede tener un precio demasiado alto.



Titulo original Miss Sloane
Audio Español Latino AC3 2.0 iTUNES - Ingles DTS 5.1 BURAY
Calidad: Full 1080p Resolucion: 1920x1080p Formato: MKV
Encoder: Dracarys Peso: 4.67 GiB Duracion: 2h 12m
Subtitulos: Español Latino PGS - Ingles PGS
  • No hay video embed

Format                                   : Matroska
Format version                           : Version 4 / Version 2
File size                                : 4.67 GiB
Duration                                 : 2 h 12 min
Overall bit rate                         : 5 056 kb/s
Movie name                               : CinemaniaHDD.net
Encoded date                             : UTC 2018-10-07 19:39:21 / UTC 2018-09-25T03:58:31Z
Writing application                      : mkvmerge v15.0.0 ('Duel with the Devil') 64-bit
Writing library                          : libebml v1.3.5 + libmatroska v1.4.5 / Lavf57.7.2

Video
ID                                       : 1
Format                                   : AVC
Format/Info                              : Advanced Video Codec
Format profile                           : High@L4.1
Format settings                          : CABAC / 4 Ref Frames
Format settings, CABAC                   : Yes
Format settings, RefFrames               : 4 frames
Codec ID                                 : V_MPEG4/ISO/AVC
Duration                                 : 2 h 12 min
Bit rate                                 : 3 255 kb/s
Width                                    : 1 920 pixels
Height                                   : 1 080 pixels
Display aspect ratio                     : 16:9
Frame rate mode                          : Constant
Frame rate                               : 23.976 (24000/1001) FPS
Color space                              : YUV
Chroma subsampling                       : 4:2:0
Bit depth                                : 8 bits
Scan type                                : Progressive
Bits/(Pixel*Frame)                       : 0.065
Stream size                              : 3.01 GiB (64%)
Writing library                          : x264 core 148 r2708 86b7198
Encoding settings                        : cabac=1 / ref=4 / deblock=1:0:0 / analyse=0x3:0x133 / me=esa / subme=10 / psy=1 / psy_rd=1.00:0.00 / mixed_ref=1 / me_range=24 / chroma_me=1 / trellis=2 / 8x8dct=1 / cqm=0 / deadzone=21,11 / fast_pskip=1 / chroma_qp_offset=-2 / threads=34 / lookahead_threads=5 / sliced_threads=0 / nr=0 / decimate=1 / interlaced=0 / bluray_compat=0 / constrained_intra=0 / bframes=8 / b_pyramid=2 / b_adapt=2 / b_bias=0 / direct=3 / weightb=1 / open_gop=0 / weightp=2 / keyint=240 / keyint_min=24 / scenecut=40 / intra_refresh=0 / rc_lookahead=60 / rc=crf / mbtree=1 / crf=20.0 / qcomp=0.60 / qpmin=0 / qpmax=69 / qpstep=4 / vbv_maxrate=62500 / vbv_bufsize=78125 / crf_max=0.0 / nal_hrd=none / filler=0 / ip_ratio=1.40 / aq=1:1.00
Language                                 : English
Default                                  : Yes
Forced                                   : No
Color range                              : Limited
Color primaries                          : BT.709
Transfer characteristics                 : BT.709
Matrix coefficients                      : BT.709
Statistics Tags Issue                    : mkvmerge v15.0.0 ('Duel with the Devil') 64-bit 2018-10-07 19:39:21 / mkvmerge v15.0.0 ('Duel with the Devil') 64-bit 2018-10-07 19:39:21 / UTC 2018-09-25T03:58:31Z
FromStats_BitRate                        : 3318908
FromStats_Duration                       : 02:12:10.965000000
FromStats_FrameCount                     : 190153
FromStats_StreamSize                     : 3290268661

Audio #1
ID                                       : 2
Format                                   : AC-3
Format/Info                              : Audio Coding 3
Format settings, Endianness              : Big
Codec ID                                 : A_AC3
Duration                                 : 2 h 12 min
Bit rate mode                            : Constant
Bit rate                                 : 192 kb/s
Channel(s)                               : 2 channels
Channel positions                        : Front: L R
Sampling rate                            : 48.0 kHz
Frame rate                               : 31.250 FPS (1536 SPF)
Bit depth                                : 16 bits
Compression mode                         : Lossy
Stream size                              : 182 MiB (4%)
Language                                 : Spanish
Service kind                             : Complete Main
Default                                  : Yes
Forced                                   : No
Statistics Tags Issue                    : mkvmerge v15.0.0 ('Duel with the Devil') 64-bit 2018-10-07 19:39:21 / mkvmerge v15.0.0 ('Duel with the Devil') 64-bit 2018-10-07 19:39:21 / UTC 2018-09-25T03:58:31Z
FromStats_BitRate                        : 192000
FromStats_Duration                       : 02:12:10.112000000
FromStats_FrameCount                     : 247816
FromStats_StreamSize                     : 190322688

Audio #2
ID                                       : 3
Format                                   : DTS
Format/Info                              : Digital Theater Systems
Mode                                     : 16
Format settings, Endianness              : Big
Codec ID                                 : A_DTS
Duration                                 : 2 h 12 min
Bit rate mode                            : Constant
Bit rate                                 : 1 509 kb/s
Channel(s)                               : 6 channels
Channel positions                        : Front: L C R, Side: L R, LFE
Sampling rate                            : 48.0 kHz
Frame rate                               : 93.750 FPS (512 SPF)
Bit depth                                : 24 bits
Compression mode                         : Lossy
Stream size                              : 1.39 GiB (30%)
Language                                 : English
Default                                  : No
Forced                                   : No
Statistics Tags Issue                    : mkvmerge v15.0.0 ('Duel with the Devil') 64-bit 2018-10-07 19:39:21 / mkvmerge v15.0.0 ('Duel with the Devil') 64-bit 2018-10-07 19:39:21 / UTC 2018-09-25T03:58:31Z
FromStats_BitRate                        : 1508999
FromStats_Duration                       : 02:12:10.998000000
FromStats_FrameCount                     : 743531
FromStats_StreamSize                     : 1495984372

Text #1
ID                                       : 4
Format                                   : UTF-8
Codec ID                                 : S_TEXT/UTF8
Codec ID/Info                            : UTF-8 Plain Text
Title                                    : Forzado
Language                                 : Spanish
Default                                  : Yes
Forced                                   : Yes
Statistics Tags Issue                    : mkvmerge v15.0.0 ('Duel with the Devil') 64-bit 2018-10-07 19:39:21 / mkvmerge v15.0.0 ('Duel with the Devil') 64-bit 2018-10-07 19:39:21 / UTC 2018-09-25T03:58:31Z
FromStats_BitRate                        : 0
FromStats_Duration                       : 02:00:21.972000000
FromStats_FrameCount                     : 24
FromStats_StreamSize                     : 722

Text #2
ID                                       : 5
Format                                   : PGS
Muxing mode                              : zlib
Codec ID                                 : S_HDMV/PGS
Codec ID/Info                            : Picture based subtitle format used on BDs/HD-DVDs
Language                                 : English
Default                                  : No
Forced                                   : No
Statistics Tags Issue                    : mkvmerge v15.0.0 ('Duel with the Devil') 64-bit 2018-10-07 19:39:21 / mkvmerge v15.0.0 ('Duel with the Devil') 64-bit 2018-10-07 19:39:21 / UTC 2018-09-25T03:58:31Z
FromStats_BitRate                        : 63287
FromStats_Duration                       : 02:05:19.971000000
FromStats_FrameCount                     : 5430
FromStats_StreamSize                     : 59489949

Text #3
ID                                       : 6
Format                                   : PGS
Muxing mode                              : zlib
Codec ID                                 : S_HDMV/PGS
Codec ID/Info                            : Picture based subtitle format used on BDs/HD-DVDs
Language                                 : Spanish
Default                                  : No
Forced                                   : No
Statistics Tags Issue                    : mkvmerge v15.0.0 ('Duel with the Devil') 64-bit 2018-10-07 19:39:21 / mkvmerge v15.0.0 ('Duel with the Devil') 64-bit 2018-10-07 19:39:21 / UTC 2018-09-25T03:58:31Z
FromStats_BitRate                        : 55179
FromStats_Duration                       : 02:11:11.488000000
FromStats_FrameCount                     : 4359
FromStats_StreamSize                     : 54293382

Menu
00:00:00.000                             : :Chapter 1
00:03:17.572                             : :Chapter 2
00:10:01.810                             : :Chapter 3
00:14:33.331                             : :Chapter 4
00:21:39.632                             : :Chapter 5
00:27:24.601                             : :Chapter 6
00:30:24.614                             : :Chapter 7
00:35:40.597                             : :Chapter 8
00:40:37.018                             : :Chapter 9
00:45:36.651                             : :Chapter 10
00:50:08.130                             : :Chapter 11
00:56:55.662                             : :Chapter 12
01:01:31.146                             : :Chapter 13
01:05:00.563                             : :Chapter 14
01:10:10.415                             : :Chapter 15
01:15:56.552                             : :Chapter 16
01:22:25.399                             : :Chapter 17
01:31:17.097                             : :Chapter 18
01:35:47.825                             : :Chapter 19
01:41:48.436                             : :Chapter 20
01:45:25.653                             : :Chapter 21
01:54:30.781                             : :Chapter 22
02:03:40.288                             : :Chapter 23
02:08:02.008                             : :Chapter 24

 

Download Links

CONTRASEÑA PARA DESCOMPRIMIR

APORTES NUEVOS

cinemaniahdd.com

APORTES VIEJOS

CinemaniaHD.org

COMPRA O RENUEVA TU PREMIUM DE UPLOADED DESDE EL SIGUIENTE LINK:

http://ul.to/ref/9821430

SI GUSTAS PUEDES SEGUIRNOS EN LAS REDES SOCIALES

Facebook

Twitter

Post Relacionados