Submergence (2017) 1080p Latino

James More es un ingeniero hidráulico que ha sido tomado como rehén en Somalia por los terroristas yihadistas, que sospechan que es un espía británico. Danielle ‘Danny’ Flinders es una bio-matemática que trabaja en un proyecto de inmersión en las aguas más profundas de los océanos para demostrar su teoría sobre el origen de la vida en el planeta. Un año antes, James y Danny se conocieron en un aislado hotel de la costa atlántica francesa, donde ambos preparaban sus peligrosas misiones, y allí encontraron, el uno en el otro, al amor de sus vidas. Ahora, separados, Danny inicia su peligrosa inmersión al fondo del océano en Groenlandia sin saber si James sigue vivo.



Titulo original Submergence
Audio Español Latino AC3 2.0 Capturado - Ingles AC3 5.1 BLURAY
Calidad: 1080p Resolucion: 1920x1038p Formato: MKV
Encoder: 3.23 GiB Peso: CinefiloCool Duracion: 1h 51m
Subtitulos: Español Latino SRT
  • No hay video embed

Format                                   : Matroska
Format version                           : Version 4 / Version 2
File size                                : 3.23 GiB
Duration                                 : 1 h 51 min
Overall bit rate                         : 4 147 kb/s
Movie name                               : CinemaniaHDD.net
Encoded date                             : UTC 2018-10-28 03:15:51 / UTC 2018-10-28T01:43:51Z
Writing application                      : mkvmerge v15.0.0 ('Duel with the Devil') 64-bit
Writing library                          : libebml v1.3.5 + libmatroska v1.4.5 / Lavf57.7.2

Video
ID                                       : 1
Format                                   : AVC
Format/Info                              : Advanced Video Codec
Format profile                           : High@L4.1
Format settings                          : CABAC / 4 Ref Frames
Format settings, CABAC                   : Yes
Format settings, RefFrames               : 4 frames
Codec ID                                 : V_MPEG4/ISO/AVC
Duration                                 : 1 h 51 min
Bit rate                                 : 3 500 kb/s
Width                                    : 1 920 pixels
Height                                   : 1 038 pixels
Display aspect ratio                     : 1.85:1
Frame rate mode                          : Constant
Frame rate                               : 24.000 FPS
Color space                              : YUV
Chroma subsampling                       : 4:2:0
Bit depth                                : 8 bits
Scan type                                : Progressive
Bits/(Pixel*Frame)                       : 0.073
Stream size                              : 2.62 GiB (81%)
Title                                    : Submergence (2017) 1080p Laino
Writing library                          : x264 core 155 r2893 b00bcaf
Encoding settings                        : cabac=1 / ref=4 / deblock=1:0:0 / analyse=0x3:0x113 / me=hex / subme=8 / psy=1 / psy_rd=1.00:0.00 / mixed_ref=1 / me_range=16 / chroma_me=1 / trellis=2 / 8x8dct=1 / cqm=0 / deadzone=21,11 / fast_pskip=1 / chroma_qp_offset=-2 / threads=32 / lookahead_threads=5 / sliced_threads=0 / nr=0 / decimate=1 / interlaced=0 / bluray_compat=0 / constrained_intra=0 / bframes=3 / b_pyramid=2 / b_adapt=1 / b_bias=0 / direct=3 / weightb=1 / open_gop=0 / weightp=2 / keyint=240 / keyint_min=24 / scenecut=40 / intra_refresh=0 / rc_lookahead=50 / rc=abr / mbtree=1 / bitrate=3500 / ratetol=1.0 / qcomp=0.60 / qpmin=0 / qpmax=69 / qpstep=4 / vbv_maxrate=62500 / vbv_bufsize=78125 / nal_hrd=none / filler=0 / ip_ratio=1.40 / aq=1:1.00
Language                                 : English
Default                                  : Yes
Forced                                   : No
Color range                              : Limited
Color primaries                          : BT.709
Transfer characteristics                 : BT.709
Matrix coefficients                      : BT.709
Statistics Tags Issue                    : mkvmerge v15.0.0 ('Duel with the Devil') 64-bit 2018-10-28 03:15:51 / mkvmerge v15.0.0 ('Duel with the Devil') 64-bit 2018-10-28 03:15:51 / UTC 2018-10-28T01:43:51Z
FromStats_BitRate                        : 3441411
FromStats_Duration                       : 01:51:35.834000000
FromStats_FrameCount                     : 160700
FromStats_StreamSize                     : 2880390219

Audio #1
ID                                       : 2
Format                                   : AC-3
Format/Info                              : Audio Coding 3
Format settings, Endianness              : Big
Codec ID                                 : A_AC3
Duration                                 : 1 h 51 min
Bit rate mode                            : Constant
Bit rate                                 : 256 kb/s
Channel(s)                               : 2 channels
Channel positions                        : Front: L R
Sampling rate                            : 48.0 kHz
Frame rate                               : 31.250 FPS (1536 SPF)
Bit depth                                : 16 bits
Compression mode                         : Lossy
Delay relative to video                  : -5 ms
Stream size                              : 204 MiB (6%)
Language                                 : Spanish
Service kind                             : Complete Main
Default                                  : Yes
Forced                                   : No
Statistics Tags Issue                    : mkvmerge v15.0.0 ('Duel with the Devil') 64-bit 2018-10-28 03:15:51 / mkvmerge v15.0.0 ('Duel with the Devil') 64-bit 2018-10-28 03:15:51 / UTC 2018-10-28T01:43:51Z
FromStats_BitRate                        : 256000
FromStats_Duration                       : 01:51:35.936000000
FromStats_FrameCount                     : 209248
FromStats_StreamSize                     : 214269952

Audio #2
ID                                       : 3
Format                                   : AC-3
Format/Info                              : Audio Coding 3
Format settings, Endianness              : Big
Codec ID                                 : A_AC3
Duration                                 : 1 h 51 min
Bit rate mode                            : Constant
Bit rate                                 : 448 kb/s
Channel(s)                               : 6 channels
Channel positions                        : Front: L C R, Side: L R, LFE
Sampling rate                            : 48.0 kHz
Frame rate                               : 31.250 FPS (1536 SPF)
Bit depth                                : 16 bits
Compression mode                         : Lossy
Stream size                              : 358 MiB (11%)
Language                                 : English
Service kind                             : Complete Main
Default                                  : No
Forced                                   : No
Statistics Tags Issue                    : mkvmerge v15.0.0 ('Duel with the Devil') 64-bit 2018-10-28 03:15:51 / mkvmerge v15.0.0 ('Duel with the Devil') 64-bit 2018-10-28 03:15:51 / UTC 2018-10-28T01:43:51Z
FromStats_BitRate                        : 448000
FromStats_Duration                       : 01:51:35.840000000
FromStats_FrameCount                     : 209245
FromStats_StreamSize                     : 374967040

Text
ID                                       : 4
Format                                   : UTF-8
Codec ID                                 : S_TEXT/UTF8
Codec ID/Info                            : UTF-8 Plain Text
Language                                 : Spanish
Default                                  : No
Forced                                   : No
Statistics Tags Issue                    : mkvmerge v15.0.0 ('Duel with the Devil') 64-bit 2018-10-28 03:15:51 / mkvmerge v15.0.0 ('Duel with the Devil') 64-bit 2018-10-28 03:15:51 / UTC 2018-10-28T01:43:51Z
FromStats_BitRate                        : 44
FromStats_Duration                       : 01:44:37.722000000
FromStats_FrameCount                     : 1002
FromStats_StreamSize                     : 34897

 

Download Links

CONTRASEÑA PARA DESCOMPRIMIR

APORTES NUEVOS

cinemaniahdd.com

APORTES VIEJOS

CinemaniaHD.org

COMPRA O RENUEVA TU PREMIUM DE UPLOADED DESDE EL SIGUIENTE LINK:

http://ul.to/ref/9821430

SI GUSTAS PUEDES SEGUIRNOS EN LAS REDES SOCIALES

Facebook

Twitter

Post Relacionados