Supergirl (2018) Temporada 04 AMZN Web-DL 1080p Subtitulado

Descargar Supergirl (2018) Temporada 04 AMZN Web-DL 1080p Subtitulado; Mega, Google Drive. Las aventuras de la prima de Superman en su propia carrera de superhéroe. “A los 12 años, Kara escapó del condenado planeta Krypton con la ayuda de sus padres, al mismo tiempo que el bebé Kal-El. Protegida y criada en la Tierra por su familia adoptiva, los Danvers, Kara creció a la sombra de su hermana de crianza, Alex (Chyler Leigh), y aprendió a ocultar los poderes fenomenales que comparte con su famoso primo con el fin de mantener su identidad en secreto”.
Capitulo 2 Agregado con subtitulos (se actualizará el post conforme salgan)
Audio Inglés 5.1 Amazon



Titulo Original Supergirl
Año 2015-10-26
Duracion 0h 42m
Director
Reparto , , , , , , , ,
Productora
Genero
Titulo original Supergirl
Audio Se especifica abajo de la Sinopsis
Calidad: WEBDL Resolucion: 1920x1080 Formato:
Encoder: CinefiloCool Peso: 1.16 GiB Aprox. Duracion: 0h 42m
Subtitulos: Español Latino SRT - Ingles SRT
  • No hay video embed

Supergirl S04E02 AMZN Web-DL 1080p Subtitulado.mkv
Format: Matroska
Format version: Version 4 / Version 2
File size : 1.16 GiB
Duration: 42 min 19 s
Overall bit rate: 3 935 kb/s
Movie name: CinemaniaHDD.Net
Encoded date: UTC 2018-10-24 03:49:55
Writing application : mkvmerge v25.0.0 ('Prog Noir') 64-bit
Writing library : libebml v1.3.6 + libmatroska v1.4.9

Video
ID: 1
Format: AVC
Format/Info : Advanced Video Codec
Format profile: High@L4.1
Format settings : CABAC / 4 Ref Frames
Format settings, CABAC: Yes
Format settings, RefFrames: 4 frames
Codec ID: V_MPEG4/ISO/AVC
Duration: 42 min 19 s
Bit rate: 3 500 kb/s
Width : 1 920 pixels
Height: 1 080 pixels
Display aspect ratio: 16:9
Frame rate mode : Constant
Frame rate: 23.976 (24000/1001) FPS
Color space : YUV
Chroma subsampling: 4:2:0
Bit depth : 8 bits
Scan type : Progressive
Bits/(Pixel*Frame): 0.070
Stream size : 1.03 GiB (89%)
Title : HD1080p [AMZN]
Writing library : x264 core 155 r2893 b00bcaf
Encoding settings : cabac=1 / ref=4 / deblock=1:0:0 / analyse=0x3:0x113 / me=hex / subme=8 / psy=1 / psy_rd=1.00:0.00 / mixed_ref=1 / me_range=16 / chroma_me=1 / trellis=2 / 8x8dct=1 / cqm=0 / deadzone=21,11 / fast_pskip=1 / chroma_qp_offset=-2 / threads=34 / lookahead_threads=5 / sliced_threads=0 / nr=0 / decimate=1 / interlaced=0 / bluray_compat=0 / constrained_intra=0 / bframes=3 / b_pyramid=2 / b_adapt=1 / b_bias=0 / direct=3 / weightb=1 / open_gop=0 / weightp=2 / keyint=240 / keyint_min=24 / scenecut=40 / intra_refresh=0 / rc_lookahead=50 / rc=abr / mbtree=1 / bitrate=3500 / ratetol=1.0 / qcomp=0.60 / qpmin=0 / qpmax=69 / qpstep=4 / vbv_maxrate=62500 / vbv_bufsize=78125 / nal_hrd=none / filler=0 / ip_ratio=1.40 / aq=1:1.00
Default : Yes
Forced: No
Color range : Limited
Color primaries : BT.709
Transfer characteristics: BT.709
Matrix coefficients : BT.709

Audio
ID: 2
Format: AC-3
Format/Info : Audio Coding 3
Format settings, Endianness : Big
Codec ID: A_AC3
Duration: 42 min 19 s
Bit rate mode : Constant
Bit rate: 448 kb/s
Channel(s): 6 channels
Channel positions : Front: L C R, Side: L R, LFE
Sampling rate : 48.0 kHz
Frame rate: 31.250 FPS (1536 SPF)
Bit depth : 16 bits
Compression mode: Lossy
Stream size : 136 MiB (11%)
Title : AC3_5.1_WebDL_Eng
Language: English
Service kind: Complete Main
Default : Yes
Forced: No

Text #1
ID: 3
Format: UTF-8
Codec ID: S_TEXT/UTF8
Codec ID/Info : UTF-8 Plain Text
Duration: 41 min 53 s
Bit rate: 94 b/s
Count of elements : 738
Stream size : 28.9 KiB (0%)
Title : Sub_Esp
Language: Spanish
Default : Yes
Forced: Yes

Text #2
ID: 4
Format: UTF-8
Codec ID: S_TEXT/UTF8
Codec ID/Info : UTF-8 Plain Text
Duration: 41 min 53 s
Bit rate: 91 b/s
Count of elements : 757
Stream size : 27.9 KiB (0%)
Title : Sub_Eng
Language: English
Default : No
Forced: No

Download Links

CONTRASEÑA PARA DESCOMPRIMIR

APORTES NUEVOS

cinemaniahdd.com

APORTES VIEJOS

CinemaniaHD.org

COMPRA O RENUEVA TU PREMIUM DE UPLOADED DESDE EL SIGUIENTE LINK:

http://ul.to/ref/9821430

SI GUSTAS PUEDES SEGUIRNOS EN LAS REDES SOCIALES

Facebook

Twitter

Post Relacionados