Talladega Nights (2006) Full 1080p Latino

Ricky Bobby se introduce por primera vez en los circuitos de carreras como “jackman” (persona responsable de levantar los coches para el cambio de neumáticos) para el descuidado piloto Terry Cheveaux (ADAM McKAY) y, accidentalmente, consigue su gran oportunidad para pilotar cuando Cheveaux hace una parada no programada en una carrera para zamparse un sándwich de pollo. Ricky salta dentro del coche y… empieza la balada de Ricky Bobby.



Titulo original Talladega Nights: The Ballad of Ricky Bobby
Audio Español Latino AC3 5.1 BLURAY - Ingles DTS 5.1 BLURAY
Calidad: Full 1080p Resolucion: 1920x1080p Formato: MKV
Encoder: Dracarys Peso: 7.93 GiB Duracion: 1h 47m
Subtitulos: Español Latino PGS - Ingles PGS
  • No hay video embed

Format                                   : Matroska
Format version                           : Version 4 / Version 2
File size                                : 7.93 GiB
Duration                                 : 1 h 47 min
Overall bit rate                         : 10.5 Mb/s
Movie name                               : CinemaniaHDD.net
Encoded date                             : UTC 2018-10-07 18:55:58 / UTC 2018-09-26T15:20:14Z
Writing application                      : mkvmerge v15.0.0 ('Duel with the Devil') 64-bit
Writing library                          : libebml v1.3.5 + libmatroska v1.4.5 / Lavf57.7.2

Video
ID                                       : 1
Format                                   : AVC
Format/Info                              : Advanced Video Codec
Format profile                           : High@L4.1
Format settings                          : CABAC / 4 Ref Frames
Format settings, CABAC                   : Yes
Format settings, RefFrames               : 4 frames
Codec ID                                 : V_MPEG4/ISO/AVC
Duration                                 : 1 h 47 min
Bit rate                                 : 8 160 kb/s
Width                                    : 1 920 pixels
Height                                   : 1 080 pixels
Display aspect ratio                     : 16:9
Frame rate mode                          : Constant
Frame rate                               : 23.976 (24000/1001) FPS
Color space                              : YUV
Chroma subsampling                       : 4:2:0
Bit depth                                : 8 bits
Scan type                                : Progressive
Bits/(Pixel*Frame)                       : 0.164
Stream size                              : 6.15 GiB (78%)
Writing library                          : x264 core 148 r2708 86b7198
Encoding settings                        : cabac=1 / ref=4 / deblock=1:0:0 / analyse=0x3:0x133 / me=esa / subme=10 / psy=1 / psy_rd=1.00:0.00 / mixed_ref=1 / me_range=24 / chroma_me=1 / trellis=2 / 8x8dct=1 / cqm=0 / deadzone=21,11 / fast_pskip=1 / chroma_qp_offset=-2 / threads=34 / lookahead_threads=5 / sliced_threads=0 / nr=0 / decimate=1 / interlaced=0 / bluray_compat=0 / constrained_intra=0 / bframes=8 / b_pyramid=2 / b_adapt=2 / b_bias=0 / direct=3 / weightb=1 / open_gop=0 / weightp=2 / keyint=240 / keyint_min=24 / scenecut=40 / intra_refresh=0 / rc_lookahead=60 / rc=crf / mbtree=1 / crf=20.0 / qcomp=0.60 / qpmin=0 / qpmax=69 / qpstep=4 / vbv_maxrate=62500 / vbv_bufsize=78125 / crf_max=0.0 / nal_hrd=none / filler=0 / ip_ratio=1.40 / aq=1:1.00
Language                                 : English
Default                                  : Yes
Forced                                   : No
Color range                              : Limited
Color primaries                          : BT.709
Transfer characteristics                 : BT.709
Matrix coefficients                      : BT.709
Statistics Tags Issue                    : mkvmerge v15.0.0 ('Duel with the Devil') 64-bit 2018-10-07 18:55:58 / mkvmerge v15.0.0 ('Duel with the Devil') 64-bit 2018-10-07 18:55:58 / UTC 2018-09-26T15:20:14Z
FromStats_BitRate                        : 8318877
FromStats_Duration                       : 01:47:59.015000000
FromStats_FrameCount                     : 155341
FromStats_StreamSize                     : 6737266139

Audio #1
ID                                       : 2
Format                                   : AC-3
Format/Info                              : Audio Coding 3
Format settings, Endianness              : Big
Codec ID                                 : A_AC3
Duration                                 : 1 h 47 min
Bit rate mode                            : Constant
Bit rate                                 : 640 kb/s
Channel(s)                               : 6 channels
Channel positions                        : Front: L C R, Side: L R, LFE
Sampling rate                            : 48.0 kHz
Frame rate                               : 31.250 FPS (1536 SPF)
Bit depth                                : 16 bits
Compression mode                         : Lossy
Delay relative to video                  : 15 ms
Stream size                              : 494 MiB (6%)
Language                                 : Spanish
Service kind                             : Complete Main
Default                                  : Yes
Forced                                   : No
Statistics Tags Issue                    : mkvmerge v15.0.0 ('Duel with the Devil') 64-bit 2018-10-07 18:55:58 / mkvmerge v15.0.0 ('Duel with the Devil') 64-bit 2018-10-07 18:55:58 / UTC 2018-09-26T15:20:14Z
FromStats_BitRate                        : 640000
FromStats_Duration                       : 01:47:59.072000000
FromStats_FrameCount                     : 202471
FromStats_StreamSize                     : 518325760

Audio #2
ID                                       : 3
Format                                   : DTS
Format/Info                              : Digital Theater Systems
Mode                                     : 16
Format settings, Endianness              : Big
Codec ID                                 : A_DTS
Duration                                 : 1 h 47 min
Bit rate mode                            : Constant
Bit rate                                 : 1 509 kb/s
Channel(s)                               : 6 channels
Channel positions                        : Front: L C R, Side: L R, LFE
Sampling rate                            : 48.0 kHz
Frame rate                               : 93.750 FPS (512 SPF)
Bit depth                                : 24 bits
Compression mode                         : Lossy
Stream size                              : 1.14 GiB (14%)
Language                                 : English
Default                                  : No
Forced                                   : No
Statistics Tags Issue                    : mkvmerge v15.0.0 ('Duel with the Devil') 64-bit 2018-10-07 18:55:58 / mkvmerge v15.0.0 ('Duel with the Devil') 64-bit 2018-10-07 18:55:58 / UTC 2018-09-26T15:20:14Z
FromStats_BitRate                        : 1508999
FromStats_Duration                       : 01:47:59.051000000
FromStats_FrameCount                     : 607411
FromStats_StreamSize                     : 1222110932

Text #1
ID                                       : 4
Format                                   : PGS
Muxing mode                              : zlib
Codec ID                                 : S_HDMV/PGS
Codec ID/Info                            : Picture based subtitle format used on BDs/HD-DVDs
Language                                 : English
Default                                  : No
Forced                                   : No
Statistics Tags Issue                    : mkvmerge v15.0.0 ('Duel with the Devil') 64-bit 2018-10-07 18:55:58 / mkvmerge v15.0.0 ('Duel with the Devil') 64-bit 2018-10-07 18:55:58 / UTC 2018-09-26T15:20:14Z
FromStats_BitRate                        : 59190
FromStats_Duration                       : 01:47:24.229000000
FromStats_FrameCount                     : 4105
FromStats_StreamSize                     : 47679317

Text #2
ID                                       : 5
Format                                   : PGS
Muxing mode                              : zlib
Codec ID                                 : S_HDMV/PGS
Codec ID/Info                            : Picture based subtitle format used on BDs/HD-DVDs
Language                                 : Spanish
Default                                  : No
Forced                                   : No
Statistics Tags Issue                    : mkvmerge v15.0.0 ('Duel with the Devil') 64-bit 2018-10-07 18:55:58 / mkvmerge v15.0.0 ('Duel with the Devil') 64-bit 2018-10-07 18:55:58 / UTC 2018-09-26T15:20:14Z
FromStats_BitRate                        : 50087
FromStats_Duration                       : 01:47:21.226000000
FromStats_FrameCount                     : 3342
FromStats_StreamSize                     : 40328268

Menu
00:00:00.000                             : :Chapter 1
00:08:51.156                             : :Chapter 2
00:17:49.443                             : :Chapter 3
00:21:21.113                             : :Chapter 4
00:28:48.810                             : :Chapter 5
00:34:38.201                             : :Chapter 6
00:42:52.820                             : :Chapter 7
00:50:24.980                             : :Chapter 8
00:57:54.096                             : :Chapter 9
01:02:07.891                             : :Chapter 10
01:09:11.773                             : :Chapter 11
01:17:32.690                             : :Chapter 12
01:23:15.282                             : :Chapter 13
01:30:09.362                             : :Chapter 14
01:34:05.890                             : :Chapter 15
01:37:31.095                             : :Chapter 16

 

Download Links

CONTRASEÑA PARA DESCOMPRIMIR

APORTES NUEVOS

cinemaniahdd.com

APORTES VIEJOS

CinemaniaHD.org

COMPRA O RENUEVA TU PREMIUM DE UPLOADED DESDE EL SIGUIENTE LINK:

http://ul.to/ref/9821430

SI GUSTAS PUEDES SEGUIRNOS EN LAS REDES SOCIALES

Facebook

Twitter

Post Relacionados