The Brink (2017) 1080p Latino

Descargar The Brink (2017) 1080p Latino; Mega, Google Drive. El detective Tung está decidido a atrapar al contrabandista Shing cueste lo que cueste. La persecución lo lleva hasta un crucero con casino, donde las luchas de poder internas entre criminales pondrán a prueba tanto al policía como al criminal. Una situación límite que The Brink explota con espectacularidad.
Audio Español Latino AC3 2.0 Capturado – Chino Ac3 5.1 Bluray



Titulo Original 狂獸
Año 2017-11-23
Duracion 1h 46m
Director
Reparto , , , , , , , ,
Productora
Genero
Titulo original 狂獸
Audio Se especifica abajo de la Sinopsis
Calidad: 1080p Resolucion: 1920x816p Formato: MKV
Encoder: CinefiloCool Peso: 2.90 GiB Duracion: 1h 46m
Subtitulos: No
  • No hay video embed

The Brink (2017) 1080p Latino.mkv
Format: Matroska
Format version: Version 4 / Version 2
File size : 2.90 GiB
Duration: 1 h 39 min
Overall bit rate: 4 182 kb/s
Movie name: CinemaniaHDD.Net
Encoded date: UTC 2018-10-18 03:57:11 / UTC 2018-10-18T00:53:39Z
Writing application : mkvmerge v25.0.0 ('Prog Noir') 64-bit
Writing library : libebml v1.3.6 + libmatroska v1.4.9 / Lavf57.7.2

Video
ID: 1
Format: AVC
Format/Info : Advanced Video Codec
Format profile: High@L4.1
Format settings : CABAC / 5 Ref Frames
Format settings, CABAC: Yes
Format settings, RefFrames: 5 frames
Codec ID: V_MPEG4/ISO/AVC
Duration: 1 h 39 min
Bit rate: 3 500 kb/s
Width : 1 920 pixels
Height: 816 pixels
Display aspect ratio: 2.35:1
Frame rate mode : Constant
Frame rate: 24.000 FPS
Color space : YUV
Chroma subsampling: 4:2:0
Bit depth : 8 bits
Scan type : Progressive
Bits/(Pixel*Frame): 0.093
Stream size : 2.35 GiB (81%)
Title : HD1080p [bluray]
Writing library : x264 core 155 r2893 b00bcaf
Encoding settings : cabac=1 / ref=5 / deblock=1:0:0 / analyse=0x3:0x113 / me=hex / subme=8 / psy=1 / psy_rd=1.00:0.00 / mixed_ref=1 / me_range=16 / chroma_me=1 / trellis=2 / 8x8dct=1 / cqm=0 / deadzone=21,11 / fast_pskip=1 / chroma_qp_offset=-2 / threads=25 / lookahead_threads=4 / sliced_threads=0 / nr=0 / decimate=1 / interlaced=0 / bluray_compat=0 / constrained_intra=0 / bframes=3 / b_pyramid=2 / b_adapt=1 / b_bias=0 / direct=3 / weightb=1 / open_gop=0 / weightp=2 / keyint=240 / keyint_min=24 / scenecut=40 / intra_refresh=0 / rc_lookahead=50 / rc=abr / mbtree=1 / bitrate=3500 / ratetol=1.0 / qcomp=0.60 / qpmin=0 / qpmax=69 / qpstep=4 / vbv_maxrate=62500 / vbv_bufsize=78125 / nal_hrd=none / filler=0 / ip_ratio=1.40 / aq=1:1.00
Default : Yes
Forced: No
Color range : Limited
Color primaries : BT.709
Transfer characteristics: BT.709
Matrix coefficients : BT.709
Statistics Tags Issue : mkvmerge v25.0.0 ('Prog Noir') 64-bit 2018-10-18 03:57:11 / mkvmerge v25.0.0 ('Prog Noir') 64-bit 2018-10-18 03:57:11 / UTC 2018-10-18T00:53:39Z
FromStats_BitRate : 3475586
FromStats_Duration: 01:39:15.292000000
FromStats_FrameCount: 142927
FromStats_StreamSize: 2587266439

Audio #1
ID: 2
Format: AC-3
Format/Info : Audio Coding 3
Format settings, Endianness : Big
Codec ID: A_AC3
Duration: 1 h 39 min
Bit rate mode : Constant
Bit rate: 256 kb/s
Channel(s): 2 channels
Channel positions : Front: L R
Sampling rate : 48.0 kHz
Frame rate: 31.250 FPS (1536 SPF)
Bit depth : 16 bits
Compression mode: Lossy
Delay relative to video : -5 ms
Stream size : 182 MiB (6%)
Title : AC3_2.0_Captura_Esp
Language: Spanish
Service kind: Complete Main
Default : Yes
Forced: Yes
Statistics Tags Issue : mkvmerge v25.0.0 ('Prog Noir') 64-bit 2018-10-18 03:57:11 / mkvmerge v25.0.0 ('Prog Noir') 64-bit 2018-10-18 03:57:11 / UTC 2018-10-18T00:53:39Z
FromStats_BitRate : 256000
FromStats_Duration: 01:39:15.296000000
FromStats_FrameCount: 186103
FromStats_StreamSize: 190569472

Audio #2
ID: 3
Format: AC-3
Format/Info : Audio Coding 3
Format settings, Endianness : Big
Codec ID: A_AC3
Duration: 1 h 39 min
Bit rate mode : Constant
Bit rate: 448 kb/s
Channel(s): 6 channels
Channel positions : Front: L C R, Side: L R, LFE
Sampling rate : 48.0 kHz
Frame rate: 31.250 FPS (1536 SPF)
Bit depth : 16 bits
Compression mode: Lossy
Stream size : 318 MiB (11%)
Title : AC3_5.1_Bluray_Chi
Language: Chinese
Service kind: Complete Main
Default : No
Forced: No
Statistics Tags Issue : mkvmerge v25.0.0 ('Prog Noir') 64-bit 2018-10-18 03:57:11 / mkvmerge v25.0.0 ('Prog Noir') 64-bit 2018-10-18 03:57:11 / UTC 2018-10-18T00:53:39Z
FromStats_BitRate : 448000
FromStats_Duration: 01:39:15.296000000
FromStats_FrameCount: 186103
FromStats_StreamSize: 333496576

Menu
00:00:00.000: :00:00:00.000
00:07:36.208: :00:07:36.042
00:10:43.333: :00:10:43.250
00:18:02.292: :00:18:02.167
00:24:28.208: :00:24:28.042
00:27:17.958: :00:27:17.833
00:30:08.708: :00:30:08.708
00:34:08.625: :00:34:08.625
00:37:09.792: :00:37:09.750
00:44:45.167: :00:44:45.083
00:49:11.167: :00:49:11.167
00:56:26.958: :00:56:26.958
00:59:27.458: :00:59:27.417
01:04:39.833: :01:04:39.750
01:10:04.542: :01:10:04.375
01:17:25.292: :01:17:25.167
01:22:13.333: :01:22:13.333
01:25:31.417: :01:25:31.292
01:31:53.208: :01:31:53.167
01:35:56.958: :01:35:56.625

Download Links

CONTRASEÑA PARA DESCOMPRIMIR

APORTES NUEVOS

cinemaniahdd.com

APORTES VIEJOS

CinemaniaHD.org

COMPRA O RENUEVA TU PREMIUM DE UPLOADED DESDE EL SIGUIENTE LINK:

http://ul.to/ref/9821430

SI GUSTAS PUEDES SEGUIRNOS EN LAS REDES SOCIALES

Facebook

Twitter

Post Relacionados