The Crimson Wing Mystery of the Flamingos (2008) Full 1080p Latino [Documental]

Acompañaremos al flamenco africano por su ciclo vital, muy ligado a los proceso naturales ocurridos en el lago Natron, Tanzania. Su alta concentración en carbonato sódico, provocado por fenómenos eruptivos del volcán Lengai, convierten la zona en un lugar inhóspito excepto para los flamencos. Éstos encuentra en las formaciones salinas un lugar ideal para resurgir de las cenizas como el ave Fénix. Un magistral documental, lleno de imágenes inolvidables acompañadas por una banda sonora exquisita. De una sensibilidad extrema, directa al corazón.



Titulo Original The Crimson Wing: Mystery of the Flamingos
Año 2008-12-17
Duracion 1h 18m
Director
Reparto
Productora
Genero
Titulo original The Crimson Wing: Mystery of the Flamingos
Audio Español Latino AC3 5.1 BLURAY - Ingles DTS 5.1 BLURAY
Calidad: Full 1080p Resolucion: 1920x1080p Formato: MKV
Encoder: Dracarys Peso: 7.51 GiB Duracion: 1h 18m
Subtitulos: Español Latino PGS - Ingles PGS
  • No hay video embed

Format                                   : Matroska
Format version                           : Version 4 / Version 2
File size                                : 7.51 GiB
Duration                                 : 1 h 17 min
Overall bit rate                         : 13.8 Mb/s
Movie name                               : CinemaniaHDD.net
Encoded date                             : UTC 2018-10-21 05:38:41 / UTC 2018-10-11T15:43:23Z
Writing application                      : mkvmerge v15.0.0 ('Duel with the Devil') 64-bit
Writing library                          : libebml v1.3.5 + libmatroska v1.4.5 / Lavf57.7.2

Video
ID                                       : 1
Format                                   : AVC
Format/Info                              : Advanced Video Codec
Format profile                           : High@L4.1
Format settings                          : CABAC / 4 Ref Frames
Format settings, CABAC                   : Yes
Format settings, RefFrames               : 4 frames
Codec ID                                 : V_MPEG4/ISO/AVC
Duration                                 : 1 h 17 min
Bit rate                                 : 11.4 Mb/s
Width                                    : 1 920 pixels
Height                                   : 1 080 pixels
Display aspect ratio                     : 16:9
Frame rate mode                          : Constant
Frame rate                               : 23.976 (24000/1001) FPS
Color space                              : YUV
Chroma subsampling                       : 4:2:0
Bit depth                                : 8 bits
Scan type                                : Progressive
Bits/(Pixel*Frame)                       : 0.229
Stream size                              : 6.19 GiB (82%)
Writing library                          : x264 core 148 r2708 86b7198
Encoding settings                        : cabac=1 / ref=4 / deblock=1:0:0 / analyse=0x3:0x133 / me=esa / subme=10 / psy=1 / psy_rd=1.00:0.00 / mixed_ref=1 / me_range=24 / chroma_me=1 / trellis=2 / 8x8dct=1 / cqm=0 / deadzone=21,11 / fast_pskip=1 / chroma_qp_offset=-2 / threads=34 / lookahead_threads=5 / sliced_threads=0 / nr=0 / decimate=1 / interlaced=0 / bluray_compat=0 / constrained_intra=0 / bframes=8 / b_pyramid=2 / b_adapt=2 / b_bias=0 / direct=3 / weightb=1 / open_gop=0 / weightp=2 / keyint=240 / keyint_min=24 / scenecut=40 / intra_refresh=0 / rc_lookahead=60 / rc=crf / mbtree=1 / crf=20.0 / qcomp=0.60 / qpmin=0 / qpmax=69 / qpstep=4 / vbv_maxrate=62500 / vbv_bufsize=78125 / crf_max=0.0 / nal_hrd=none / filler=0 / ip_ratio=1.40 / aq=1:1.00
Language                                 : English
Default                                  : Yes
Forced                                   : No
Color range                              : Limited
Color primaries                          : BT.709
Transfer characteristics                 : BT.709
Matrix coefficients                      : BT.709
Statistics Tags Issue                    : mkvmerge v15.0.0 ('Duel with the Devil') 64-bit 2018-10-21 05:38:41 / mkvmerge v15.0.0 ('Duel with the Devil') 64-bit 2018-10-21 05:38:41 / UTC 2018-10-11T15:43:23Z
FromStats_BitRate                        : 11665645
FromStats_Duration                       : 01:17:45.661000000
FromStats_FrameCount                     : 111864
FromStats_StreamSize                     : 6803493419

Audio #1
ID                                       : 2
Format                                   : AC-3
Format/Info                              : Audio Coding 3
Format settings, Endianness              : Big
Codec ID                                 : A_AC3
Duration                                 : 1 h 17 min
Bit rate mode                            : Constant
Bit rate                                 : 640 kb/s
Channel(s)                               : 6 channels
Channel positions                        : Front: L C R, Side: L R, LFE
Sampling rate                            : 48.0 kHz
Frame rate                               : 31.250 FPS (1536 SPF)
Bit depth                                : 16 bits
Compression mode                         : Lossy
Stream size                              : 356 MiB (5%)
Language                                 : Spanish
Service kind                             : Complete Main
Default                                  : Yes
Forced                                   : No
Statistics Tags Issue                    : mkvmerge v15.0.0 ('Duel with the Devil') 64-bit 2018-10-21 05:38:41 / mkvmerge v15.0.0 ('Duel with the Devil') 64-bit 2018-10-21 05:38:41 / UTC 2018-10-11T15:43:23Z
FromStats_BitRate                        : 640000
FromStats_Duration                       : 01:17:45.664000000
FromStats_FrameCount                     : 145802
FromStats_StreamSize                     : 373253120

Audio #2
ID                                       : 3
Format                                   : DTS
Format/Info                              : Digital Theater Systems
Mode                                     : 16
Format settings, Endianness              : Big
Codec ID                                 : A_DTS
Duration                                 : 1 h 17 min
Bit rate mode                            : Constant
Bit rate                                 : 1 509 kb/s
Channel(s)                               : 6 channels
Channel positions                        : Front: L C R, Side: L R, LFE
Sampling rate                            : 48.0 kHz
Frame rate                               : 93.750 FPS (512 SPF)
Bit depth                                : 24 bits
Compression mode                         : Lossy
Stream size                              : 839 MiB (11%)
Language                                 : English
Default                                  : No
Forced                                   : No
Statistics Tags Issue                    : mkvmerge v15.0.0 ('Duel with the Devil') 64-bit 2018-10-21 05:38:41 / mkvmerge v15.0.0 ('Duel with the Devil') 64-bit 2018-10-21 05:38:41 / UTC 2018-10-11T15:43:23Z
FromStats_BitRate                        : 1508999
FromStats_Duration                       : 01:17:45.654000000
FromStats_FrameCount                     : 437405
FromStats_StreamSize                     : 880058860

Text #1
ID                                       : 4
Format                                   : PGS
Muxing mode                              : zlib
Codec ID                                 : S_HDMV/PGS
Codec ID/Info                            : Picture based subtitle format used on BDs/HD-DVDs
Language                                 : English
Default                                  : No
Forced                                   : No
Statistics Tags Issue                    : mkvmerge v15.0.0 ('Duel with the Devil') 64-bit 2018-10-21 05:38:41 / mkvmerge v15.0.0 ('Duel with the Devil') 64-bit 2018-10-21 05:38:41 / UTC 2018-10-11T15:43:23Z
FromStats_BitRate                        : 12897
FromStats_Duration                       : 01:13:19.270000000
FromStats_FrameCount                     : 627
FromStats_StreamSize                     : 7092675

Text #2
ID                                       : 5
Format                                   : PGS
Muxing mode                              : zlib
Codec ID                                 : S_HDMV/PGS
Codec ID/Info                            : Picture based subtitle format used on BDs/HD-DVDs
Language                                 : Spanish
Default                                  : No
Forced                                   : No
Statistics Tags Issue                    : mkvmerge v15.0.0 ('Duel with the Devil') 64-bit 2018-10-21 05:38:41 / mkvmerge v15.0.0 ('Duel with the Devil') 64-bit 2018-10-21 05:38:41 / UTC 2018-10-11T15:43:23Z
FromStats_BitRate                        : 13149
FromStats_Duration                       : 01:13:50.843000000
FromStats_FrameCount                     : 579
FromStats_StreamSize                     : 7282935

Text #3
ID                                       : 6
Format                                   : PGS
Muxing mode                              : zlib
Codec ID                                 : S_HDMV/PGS
Codec ID/Info                            : Picture based subtitle format used on BDs/HD-DVDs
Title                                    : Forzados
Language                                 : Spanish
Default                                  : Yes
Forced                                   : Yes
Statistics Tags Issue                    : mkvmerge v15.0.0 ('Duel with the Devil') 64-bit 2018-10-21 05:38:41 / mkvmerge v15.0.0 ('Duel with the Devil') 64-bit 2018-10-21 05:38:41 / UTC 2018-10-11T15:43:23Z
FromStats_BitRate                        : 40649
FromStats_Duration                       : 00:00:04.004000000
FromStats_FrameCount                     : 2
FromStats_StreamSize                     : 20345

Menu
00:00:00.000                             : :Chapter 1
00:04:11.251                             : :Chapter 2
00:10:57.490                             : :Chapter 3
00:15:24.090                             : :Chapter 4
00:20:15.840                             : :Chapter 5
00:22:32.351                             : :Chapter 6
00:24:04.568                             : :Chapter 7
00:32:01.128                             : :Chapter 8
00:40:11.826                             : :Chapter 9
00:46:27.159                             : :Chapter 10
00:54:47.034                             : :Chapter 11
01:05:49.195                             : :Chapter 12
01:09:07.060                             : :Chapter 13
01:14:09.445                             : :Chapter 14

 

Download Links

CONTRASEÑA PARA DESCOMPRIMIR

APORTES NUEVOS

cinemaniahdd.com

APORTES VIEJOS

CinemaniaHD.org

COMPRA O RENUEVA TU PREMIUM DE UPLOADED DESDE EL SIGUIENTE LINK:

http://ul.to/ref/9821430

SI GUSTAS PUEDES SEGUIRNOS EN LAS REDES SOCIALES

Facebook

Twitter

Post Relacionados