The Disaster Artist (2017) 1080p Latino

Descargar The Disaster Artist (2017) 1080p Latino, Mega, Google Drive. Narra la historia real del ‘making of’ de la película The Room, que ha sido considerada como “una de las peores películas de la historia”. Dirigida en 2003 por Tommy Wiseau, The Room se ha estado proyectando en salas completamente llenas por todo Norteamérica desde hace más de una década. The Disaster Artist es una buddy comedy sobre dos inadaptados en busca de un sueño. Cuando el mundo los rechaza, deciden hacer su propia película, un film maravillosamente espantoso gracias a sus momentos involuntariamente cómicos, sus tramas dispersas y sus terribles interpretaciones.



Titulo Original The Disaster Artist
Año 2017-03-12
Duracion 1h 44m
Director
Reparto , , , , , , , , , , , , , , , , , , , , , , , , , , , , , , , , , , , , , , , , , , , , , , , , , , , , , , , , , , , , , , , , , , , , , , , , , , , , , , , , , , , , , , , , , , , , , , , , , , , , , , , , , ,
Productora
Genero
Titulo original The Disaster Artist
Audio Español Latino AC3 2.0 iTUNES - Ingles AC3 5.1 BLURAY
Calidad: 1080p Resolucion: 1920x800p Formato: MKV
Encoder: CinefiloCool Peso: 3.04 GiB Duracion: 1h 44m
Subtitulos: Español Latino SRT- FORZADOS SRT
  • No hay video embed

The Disaster Artist (2017) 1080p Latino.mkv
Format: Matroska
Format version: Version 4
File size : 3.04 GiB
Duration: 1 h 43 min
Overall bit rate: 4 189 kb/s
Movie name: CinemaniaHDD.Net
Encoded date: UTC 2018-12-01 05:23:39
Writing application : mkvmerge v28.2.0 ('The Awakening') 64-bit
Writing library : libebml v1.3.6 + libmatroska v1.4.9

Video
ID: 1
Format: AVC
Format/Info : Advanced Video Codec
Format profile: High@L4.1
Format settings : CABAC / 5 Ref Frames
Format settings, CABAC: Yes
Format settings, ReFrames : 5 frames
Codec ID: V_MPEG4/ISO/AVC
Duration: 1 h 43 min
Bit rate: 3 500 kb/s
Width : 1 920 pixels
Height: 800 pixels
Display aspect ratio: 2.40:1
Frame rate mode : Constant
Frame rate: 23.976 (24000/1001) FPS
Color space : YUV
Chroma subsampling: 4:2:0
Bit depth : 8 bits
Scan type : Progressive
Bits/(Pixel*Frame): 0.095
Stream size : 2.53 GiB (83%)
Title : HD1080p [Bluray]
Writing library : x264 core 155 r2901 7d0ff22
Encoding settings : cabac=1 / ref=5 / deblock=1:0:0 / analyse=0x3:0x113 / me=hex / subme=8 / psy=1 / psy_rd=1.00:0.00 / mixed_ref=1 / me_range=16 / chroma_me=1 / trellis=2 / 8x8dct=1 / cqm=0 / deadzone=21,11 / fast_pskip=1 / chroma_qp_offset=-2 / threads=25 / lookahead_threads=4 / sliced_threads=0 / nr=0 / decimate=1 / interlaced=0 / bluray_compat=0 / constrained_intra=0 / bframes=3 / b_pyramid=2 / b_adapt=1 / b_bias=0 / direct=3 / weightb=1 / open_gop=0 / weightp=2 / keyint=240 / keyint_min=24 / scenecut=40 / intra_refresh=0 / rc_lookahead=50 / rc=abr / mbtree=1 / bitrate=3500 / ratetol=1.0 / qcomp=0.60 / qpmin=0 / qpmax=69 / qpstep=4 / vbv_maxrate=62500 / vbv_bufsize=78125 / nal_hrd=none / filler=0 / ip_ratio=1.40 / aq=1:1.00
Default : Yes
Forced: No
Color range : Limited
Color primaries : BT.709
Transfer characteristics: BT.709
Matrix coefficients : BT.709

Audio #1
ID: 2
Format: AC-3
Format/Info : Audio Coding 3
Commercial name : Dolby Digital
Codec ID: A_AC3
Duration: 1 h 43 min
Bit rate mode : Constant
Bit rate: 256 kb/s
Channel(s): 2 channels
Channel layout: L R
Sampling rate : 48.0 kHz
Frame rate: 31.250 FPS (1536 SPF)
Bit depth : 16 bits
Compression mode: Lossy
Delay relative to video : -5 ms
Stream size : 190 MiB (6%)
Title : AC3_2.0_Itunes_Esp
Language: Spanish
Service kind: Complete Main
Default : Yes
Forced: Yes

Audio #2
ID: 3
Format: AC-3
Format/Info : Audio Coding 3
Commercial name : Dolby Digital
Codec ID: A_AC3
Duration: 1 h 43 min
Bit rate mode : Constant
Bit rate: 448 kb/s
Channel(s): 6 channels
Channel layout: L R C LFE Ls Rs
Sampling rate : 48.0 kHz
Frame rate: 31.250 FPS (1536 SPF)
Bit depth : 16 bits
Compression mode: Lossy
Stream size : 333 MiB (11%)
Title : AC3_5.1_Bluray_Eng
Language: English
Service kind: Complete Main
Default : No
Forced: No

Text #1
ID: 4
Format: UTF-8
Codec ID: S_TEXT/UTF8
Codec ID/Info : UTF-8 Plain Text
Duration: 1 h 41 min
Bit rate: 2 b/s
Count of elements : 54
Stream size : 1.68 KiB (0%)
Title : Sub_Forzados
Language: Spanish
Default : Yes
Forced: Yes

Text #2
ID: 5
Format: UTF-8
Codec ID: S_TEXT/UTF8
Codec ID/Info : UTF-8 Plain Text
Duration: 1 h 42 min
Bit rate: 77 b/s
Count of elements : 1862
Stream size : 58.1 KiB (0%)
Title : Sub_Esp
Language: Spanish
Default : No
Forced: No

Menu
00:00:00.000: :Chapter 1
00:05:39.673: :Chapter 2
00:13:55.084: :Chapter 3
00:20:18.384: :Chapter 4
00:24:27.967: :Chapter 5
00:30:48.764: :Chapter 6
00:37:05.515: :Chapter 7
00:43:16.844: :Chapter 8
00:49:27.423: :Chapter 9
00:56:50.032: :Chapter 10
01:02:26.243: :Chapter 11
01:08:24.559: :Chapter 12
01:16:57.238: :Chapter 13
01:21:25.798: :Chapter 14
01:28:40.190: :Chapter 15
01:34:53.438: :Chapter 16

Download Links

CONTRASEÑA PARA DESCOMPRIMIR

APORTES NUEVOS

cinemaniahdd.com

APORTES VIEJOS

CinemaniaHD.org

COMPRA O RENUEVA TU PREMIUM DE UPLOADED DESDE EL SIGUIENTE LINK:

http://ul.to/ref/9821430

SI GUSTAS PUEDES SEGUIRNOS EN LAS REDES SOCIALES

Facebook

Twitter

Post Relacionados