The Disaster Artist (2017) Full 1080p Latino

Descarga The Disaster Artist (2017) Full 1080p Latino, Mega, Google Drive. Narra la historia real del ‘making of’ de la película The Room, que ha sido considerada como “una de las peores películas de la historia”. Dirigida en 2003 por Tommy Wiseau, The Room se ha estado proyectando en salas completamente llenas por todo Norteamérica desde hace más de una década. The Disaster Artist es una buddy comedy sobre dos inadaptados en busca de un sueño. Cuando el mundo los rechaza, deciden hacer su propia película, un film maravillosamente espantoso gracias a sus momentos involuntariamente cómicos, sus tramas dispersas y sus terribles interpretaciones.
Audio Español Latino AC3 2.0 Itunes  – Ingles TrueHD 7.1 Bluray



Titulo Original The Disaster Artist
Año 2017-03-12
Duracion 1h 44m
Director
Reparto , , , , , , , , , , , , , , , , , , , , , , , , , , , , , , , , , , , , , , , , , , , , , , , , , , , , , , , , , , , , , , , , , , , , , , , , , , , , , , , , , , , , , , , , , , , , , , , , , , , , , , , , , ,
Productora
Genero
Titulo original The Disaster Artist
Audio Se especifica abajo de la Sinopsis
Calidad: Full 1080p Resolucion: 1920x1080p Formato: MKV
Encoder: CinefiloCool Peso: 7.14 GiB Duracion: 1h 44m
Subtitulos: Español Latino PGS - Ingles PGS
  • No hay video embed

The Disaster Artist (2017) Full 1080p Latino.mkv
Format: Matroska
Format version: Version 4
File size : 7.14 GiB
Duration: 1 h 43 min
Overall bit rate mode : Variable
Overall bit rate: 9 842 kb/s
Movie name: CinemaniaHDD.Net
Encoded date: UTC 2018-12-01 06:24:11
Writing application : mkvmerge v28.2.0 ('The Awakening') 64-bit
Writing library : libebml v1.3.6 + libmatroska v1.4.9

Video
ID: 1
Format: AVC
Format/Info : Advanced Video Codec
Format profile: High@L4.1
Format settings : CABAC / 4 Ref Frames
Format settings, CABAC: Yes
Format settings, ReFrames : 4 frames
Codec ID: V_MPEG4/ISO/AVC
Duration: 1 h 43 min
Bit rate: 5 797 kb/s
Width : 1 920 pixels
Height: 1 080 pixels
Display aspect ratio: 16:9
Frame rate mode : Constant
Frame rate: 23.976 (24000/1001) FPS
Color space : YUV
Chroma subsampling: 4:2:0
Bit depth : 8 bits
Scan type : Progressive
Bits/(Pixel*Frame): 0.117
Stream size : 4.20 GiB (59%)
Title : Full HD1080p [Bluray]
Writing library : x264 core 155 r2901 7d0ff22
Encoding settings : cabac=1 / ref=4 / deblock=1:0:0 / analyse=0x3:0x133 / me=esa / subme=10 / psy=1 / psy_rd=1.00:0.00 / mixed_ref=1 / me_range=24 / chroma_me=1 / trellis=2 / 8x8dct=1 / cqm=0 / deadzone=21,11 / fast_pskip=1 / chroma_qp_offset=-2 / threads=34 / lookahead_threads=5 / sliced_threads=0 / nr=0 / decimate=1 / interlaced=0 / bluray_compat=0 / constrained_intra=0 / bframes=8 / b_pyramid=2 / b_adapt=2 / b_bias=0 / direct=3 / weightb=1 / open_gop=0 / weightp=2 / keyint=240 / keyint_min=24 / scenecut=40 / intra_refresh=0 / rc_lookahead=60 / rc=crf / mbtree=1 / crf=20.0 / qcomp=0.60 / qpmin=0 / qpmax=69 / qpstep=4 / vbv_maxrate=62500 / vbv_bufsize=78125 / crf_max=0.0 / nal_hrd=none / filler=0 / ip_ratio=1.40 / aq=1:1.00
Default : Yes
Forced: Yes
Color range : Limited
Color primaries : BT.709
Transfer characteristics: BT.709
Matrix coefficients : BT.709

Audio #1
ID: 2
Format: AC-3
Format/Info : Audio Coding 3
Commercial name : Dolby Digital
Codec ID: A_AC3
Duration: 1 h 43 min
Bit rate mode : Constant
Bit rate: 256 kb/s
Channel(s): 2 channels
Channel layout: L R
Sampling rate : 48.0 kHz
Frame rate: 31.250 FPS (1536 SPF)
Bit depth : 16 bits
Compression mode: Lossy
Stream size : 190 MiB (3%)
Title : AC3_2.0_Itunes_Esp
Language: Spanish
Service kind: Complete Main
Default : Yes
Forced: Yes

Audio #2
ID: 3
Format: MLP FBA
Format/Info : Meridian Lossless Packing FBA
Commercial name : Dolby TrueHD
Codec ID: A_TRUEHD
Duration: 1 h 43 min
Bit rate mode : Variable
Bit rate: 3 664 kb/s
Maximum bit rate: 4 728 kb/s
Channel(s): 8 channels
Channel layout: L R C LFE Ls Rs Lb Rb
Sampling rate : 48.0 kHz
Frame rate: 1 200.000 FPS (40 SPF)
Compression mode: Lossless
Stream size : 2.66 GiB (37%)
Title : TrueHD_7.1_Bluray_Eng
Language: English
Default : No
Forced: No

Text #1
ID: 4
Format: PGS
Muxing mode : zlib
Codec ID: S_HDMV/PGS
Codec ID/Info : Picture based subtitle format used on BDs/HD-DVDs
Duration: 1 h 42 min
Bit rate: 50.6 kb/s
Count of elements : 3739
Stream size : 37.1 MiB (1%)
Title : Sub_Esp [PGS]
Language: Spanish
Default : No
Forced: No

Text #2
ID: 5
Format: PGS
Muxing mode : zlib
Codec ID: S_HDMV/PGS
Codec ID/Info : Picture based subtitle format used on BDs/HD-DVDs
Duration: 1 h 42 min
Bit rate: 65.6 kb/s
Count of elements : 4010
Stream size : 48.1 MiB (1%)
Title : Sub_Eng [PGS]
Language: English
Default : No
Forced: No

Menu
00:00:00.000: :Chapter 1
00:05:39.673: :Chapter 2
00:13:55.084: :Chapter 3
00:20:18.384: :Chapter 4
00:24:27.967: :Chapter 5
00:30:48.764: :Chapter 6
00:37:05.515: :Chapter 7
00:43:16.844: :Chapter 8
00:49:27.423: :Chapter 9
00:56:50.032: :Chapter 10
01:02:26.243: :Chapter 11
01:08:24.559: :Chapter 12
01:16:57.238: :Chapter 13
01:21:25.798: :Chapter 14
01:28:40.190: :Chapter 15
01:34:53.438: :Chapter 16

Download Links

CONTRASEÑA PARA DESCOMPRIMIR

APORTES NUEVOS

cinemaniahdd.com

APORTES VIEJOS

CinemaniaHD.org

COMPRA O RENUEVA TU PREMIUM DE UPLOADED DESDE EL SIGUIENTE LINK:

http://ul.to/ref/9821430

SI GUSTAS PUEDES SEGUIRNOS EN LAS REDES SOCIALES

Facebook

Twitter

Post Relacionados