The Flash (2018) Temporada 05 AMZN Web-DL1080p Subtitulado

The Flash (2018) Temporada 5 AMZN 1080p Subtitulado, Mega, Google Drive. La combinación de El Pensador, que al final de la temporada había aprovechado los poderes de los doce metabases que creó, llevó al Equipo Flash a sus límites, pero con la ayuda de algunos nuevos aliados, Barry Allen (también conocido como Flash) y su grupo pudieron poner fin a La Iluminación y salve Ciudad Central una vez más.”

“Sin embargo, con la llegada de la hija veloz de Barry e Iris, Nora, que llegó del futuro admitiendo haber cometido un “gran error”, las cosas no son más que status quo. ¿Será la paternidad el desafío que finalmente desacelerará a Flash?
Capitulo 2 Agregado con subtitulos (se actualizará el post conforme salgan)
Audio Inglés 5.1 Amazon



Titulo Original The Flash
Año 2014-10-07
Duracion 0h 44m
Director
Reparto , , , , ,
Productora
Genero
Titulo original The Flash
Audio Se especifica abajo de la Sinopsis
Calidad: WEBDL Resolucion: 1920x1080p Formato: MKV
Encoder: CinefiloCool Peso: 1.16 GiB Aprox. Duracion: 0h 44m
Subtitulos: Español Latino SRT - Ingles SRT
  • No hay video embed

The Flash S05E02 AMZN Web-DL 1080p Subtitulado.mkv
Format: Matroska
Format version: Version 4 / Version 2
File size : 1.16 GiB
Duration: 42 min 9 s
Overall bit rate: 3 932 kb/s
Movie name: CinemaniaHDD.Net
Encoded date: UTC 2018-10-18 04:28:01 / UTC 2018-10-17T20:51:41Z
Writing application : mkvmerge v25.0.0 ('Prog Noir') 64-bit
Writing library : libebml v1.3.6 + libmatroska v1.4.9 / Lavf57.7.2

Video
ID: 1
Format: AVC
Format/Info : Advanced Video Codec
Format profile: High@L4.1
Format settings : CABAC / 4 Ref Frames
Format settings, CABAC: Yes
Format settings, RefFrames: 4 frames
Codec ID: V_MPEG4/ISO/AVC
Duration: 42 min 9 s
Bit rate: 3 500 kb/s
Width : 1 920 pixels
Height: 1 080 pixels
Display aspect ratio: 16:9
Frame rate mode : Constant
Frame rate: 23.976 (24000/1001) FPS
Color space : YUV
Chroma subsampling: 4:2:0
Bit depth : 8 bits
Scan type : Progressive
Bits/(Pixel*Frame): 0.070
Stream size : 1.00 GiB (87%)
Title : HD1080p [AMZN]
Writing library : x264 core 155 r2893 b00bcaf
Encoding settings : cabac=1 / ref=4 / deblock=1:0:0 / analyse=0x3:0x133 / me=umh / subme=9 / psy=1 / psy_rd=1.00:0.00 / mixed_ref=1 / me_range=16 / chroma_me=1 / trellis=2 / 8x8dct=1 / cqm=0 / deadzone=21,11 / fast_pskip=1 / chroma_qp_offset=-2 / threads=34 / lookahead_threads=2 / sliced_threads=0 / nr=0 / decimate=1 / interlaced=0 / bluray_compat=0 / constrained_intra=0 / bframes=3 / b_pyramid=2 / b_adapt=2 / b_bias=0 / direct=3 / weightb=1 / open_gop=0 / weightp=2 / keyint=240 / keyint_min=24 / scenecut=40 / intra_refresh=0 / rc_lookahead=60 / rc=abr / mbtree=1 / bitrate=3500 / ratetol=1.0 / qcomp=0.60 / qpmin=0 / qpmax=69 / qpstep=4 / vbv_maxrate=62500 / vbv_bufsize=78125 / nal_hrd=none / filler=0 / ip_ratio=1.40 / aq=1:1.00
Default : Yes
Forced: No
Color range : Limited
Color primaries : BT.709
Transfer characteristics: BT.709
Matrix coefficients : BT.709
Statistics Tags Issue : mkvmerge v25.0.0 ('Prog Noir') 64-bit 2018-10-18 04:28:01 / mkvmerge v25.0.0 ('Prog Noir') 64-bit 2018-10-18 04:28:01 / UTC 2018-10-17T20:51:41Z
FromStats_BitRate : 3481896
FromStats_Duration: 00:42:09.611000000
FromStats_FrameCount: 60650
FromStats_StreamSize: 1100980518

Audio
ID: 2
Format: AC-3
Format/Info : Audio Coding 3
Format settings, Endianness : Big
Codec ID: A_AC3
Duration: 42 min 9 s
Bit rate mode : Constant
Bit rate: 448 kb/s
Channel(s): 6 channels
Channel positions : Front: L C R, Side: L R, LFE
Sampling rate : 48.0 kHz
Frame rate: 31.250 FPS (1536 SPF)
Bit depth : 16 bits
Compression mode: Lossy
Stream size : 135 MiB (11%)
Title : AC3_5.1_WebDL_Eng
Language: English
Service kind: Complete Main
Default : Yes
Forced: No
Statistics Tags Issue : mkvmerge v25.0.0 ('Prog Noir') 64-bit 2018-10-18 04:28:01 / mkvmerge v25.0.0 ('Prog Noir') 64-bit 2018-10-18 04:28:01 / UTC 2018-10-17T20:51:41Z
FromStats_BitRate : 448000
FromStats_Duration: 00:42:09.632000000
FromStats_FrameCount: 79051
FromStats_StreamSize: 141659392

Text #1
ID: 3
Format: UTF-8
Codec ID: S_TEXT/UTF8
Codec ID/Info : UTF-8 Plain Text
Title : Sub_Esp
Language: Spanish
Default : Yes
Forced: Yes
Statistics Tags Issue : mkvmerge v25.0.0 ('Prog Noir') 64-bit 2018-10-18 04:28:01 / mkvmerge v25.0.0 ('Prog Noir') 64-bit 2018-10-18 04:28:01 / UTC 2018-10-17T20:51:41Z
FromStats_BitRate : 77
FromStats_Duration: 00:41:38.638000000
FromStats_FrameCount: 709
FromStats_StreamSize: 24076

Text #2
ID: 4
Format: UTF-8
Codec ID: S_TEXT/UTF8
Codec ID/Info : UTF-8 Plain Text
Title : Sub_Eng
Language: English
Default : No
Forced: No
Statistics Tags Issue : mkvmerge v25.0.0 ('Prog Noir') 64-bit 2018-10-18 04:28:01 / mkvmerge v25.0.0 ('Prog Noir') 64-bit 2018-10-18 04:28:01 / UTC 2018-10-17T20:51:41Z
FromStats_BitRate : 82
FromStats_Duration: 00:42:02.869000000
FromStats_FrameCount: 870
FromStats_StreamSize: 26003

Download Links

CONTRASEÑA PARA DESCOMPRIMIR

APORTES NUEVOS

cinemaniahdd.com

APORTES VIEJOS

CinemaniaHD.org

COMPRA O RENUEVA TU PREMIUM DE UPLOADED DESDE EL SIGUIENTE LINK:

http://ul.to/ref/9821430

SI GUSTAS PUEDES SEGUIRNOS EN LAS REDES SOCIALES

Facebook

Twitter

Post Relacionados