The Haunting of Hill House (2018) Primera Temporada [NF] WEB-DL 1080p Latino

La maldición de Hill House es una serie de terror que se ambienta en la mansión Hill House, construida hace 80 años. El drama sigue la historia de unos hermanos y cómo crecieron en la masión embrujada, que posteriormente se convierte en la más famosa del país. Una vez de adultos se vuelven a reunir tras una tragedia, la familia se tiene que enfrentar a los fantamas del pasado, que acechan en sus mentes mientras otros se esconden en las sombras de la mansión.

Basada en el libro ‘La Maldición de Hill House’ de Shirley Jackson, la ficción terrorífica de Netflix está protagonizada por Michiel Huisman (Juego de Tronos), en el papel del escritor. Mike Flanagan se encarga tanto de la dirección como del guion y participa como productor ejecutivo.

Latino: E-AC3 5.1 Netflix  –  Ingles: E-AC3 5.1 Netflix



Titulo Original The Haunting of Hill House
Año 2018-10-12
Duracion 0h 58m
Director
Reparto , , , , , , , , , , , , ,
Productora
Genero
Titulo original The Haunting of Hill House
Audio Se especifica abajo de la Sinopsis
Calidad: Resolucion: 1920x1080p Formato: MKV
Encoder: Dracarys Peso: 1.20 GiB X Capitulo Duracion: 0h 58m
Subtitulos: Español Latino SRT- FORZADOS SRT
  • No hay video embed

Format                                 : Matroska
Format version                         : Version 4 / Version 2
File size                              : 1.20 GiB
Duration                               : 1 h 0 min
Overall bit rate mode                  : Variable
Overall bit rate                       : 2 859 kb/s
Movie name                             : CinemaniaHDD.net
Encoded date                           : UTC 2018-10-19 02:06:35
Writing application                    : mkvmerge v15.0.0 ('Duel with the Devil') 64-bit
Writing library                        : libebml v1.3.5 + libmatroska v1.4.5

Video
ID                                     : 1
Format                                 : AVC
Format/Info                            : Advanced Video Codec
Format profile                         : Main@L4
Format settings                        : CABAC / 3 Ref Frames
Format settings, CABAC                 : Yes
Format settings, RefFrames             : 3 frames
Codec ID                               : V_MPEG4/ISO/AVC
Duration                               : 1 h 0 min
Bit rate mode                          : Variable
Bit rate                               : 2 050 kb/s
Maximum bit rate                       : 3 075 kb/s
Width                                  : 1 920 pixels
Height                                 : 1 080 pixels
Display aspect ratio                   : 16:9
Frame rate mode                        : Constant
Frame rate                             : 23.976 (24000/1001) FPS
Color space                            : YUV
Chroma subsampling                     : 4:2:0
Bit depth                              : 8 bits
Scan type                              : Progressive
Bits/(Pixel*Frame)                     : 0.041
Stream size                            : 870 MiB (71%)
Writing library                        : x264 core 148 r2715 7e75228
Encoding settings                      : cabac=1 / ref=3 / deblock=1:0:0 / analyse=0x1:0x111 / me=umh / subme=10 / psy=1 / psy_rd=1.00:0.00 / mixed_ref=1 / me_range=24 / chroma_me=1 / trellis=2 / 8x8dct=0 / cqm=0 / deadzone=21,11 / fast_pskip=1 / chroma_qp_offset=-2 / threads=6 / lookahead_threads=1 / sliced_threads=0 / nr=0 / decimate=1 / interlaced=0 / bluray_compat=0 / stitchable=1 / constrained_intra=0 / bframes=2 / b_pyramid=0 / b_adapt=2 / b_bias=0 / direct=3 / weightb=1 / open_gop=0 / weightp=2 / keyint=48 / keyint_min=25 / scenecut=0 / intra_refresh=0 / rc_lookahead=48 / rc=2pass / mbtree=1 / bitrate=2050 / ratetol=1.0 / qcomp=0.50 / qpmin=6 / qpmax=51 / qpstep=4 / cplxblur=20.0 / qblur=0.5 / vbv_maxrate=3075 / vbv_bufsize=4100 / nal_hrd=vbr / filler=0 / ip_ratio=1.40 / aq=1:1.00
Default                                : Yes
Forced                                 : No

Audio #1
ID                                     : 2
Format                                 : E-AC-3
Format/Info                            : Enhanced Audio Coding 3
Format settings, Endianness            : Big
Codec ID                               : A_EAC3
Duration                               : 1 h 0 min
Bit rate mode                          : Constant
Bit rate                               : 192 kb/s
Channel(s)                             : 6 channels
Channel positions                      : Front: L C R, Side: L R, LFE
Sampling rate                          : 48.0 kHz
Frame rate                             : 187.500 FPS (256 SPF)
Compression mode                       : Lossy
Stream size                            : 82.5 MiB (7%)
Language                               : Spanish
Service kind                           : Complete Main
Default                                : Yes
Forced                                 : No

Audio #2
ID                                     : 3
Format                                 : E-AC-3
Format/Info                            : Enhanced Audio Coding 3
Format settings, Endianness            : Big
Codec ID                               : A_EAC3
Duration                               : 1 h 0 min
Bit rate mode                          : Constant
Bit rate                               : 640 kb/s
Channel(s)                             : 6 channels
Channel positions                      : Front: L C R, Side: L R, LFE
Sampling rate                          : 48.0 kHz
Frame rate                             : 187.500 FPS (256 SPF)
Compression mode                       : Lossy
Stream size                            : 275 MiB (22%)
Language                               : English
Service kind                           : Complete Main
Default                                : No
Forced                                 : No

Text #1
ID                                     : 4
Format                                 : UTF-8
Codec ID                               : S_TEXT/UTF8
Codec ID/Info                          : UTF-8 Plain Text
Duration                               : 58 min 2 s
Bit rate                               : 56 b/s
Count of elements                      : 802
Stream size                            : 24.2 KiB (0%)
Title                                  : SDH
Language                               : English
Default                                : No
Forced                                 : No

Text #2
ID                                     : 5
Format                                 : UTF-8
Codec ID                               : S_TEXT/UTF8
Codec ID/Info                          : UTF-8 Plain Text
Duration                               : 58 min 19 s
Bit rate                               : 1 b/s
Count of elements                      : 31
Stream size                            : 637 Bytes (0%)
Title                                  : Forzados
Language                               : Spanish
Default                                : Yes
Forced                                 : Yes

Text #3
ID                                     : 6
Format                                 : UTF-8
Codec ID                               : S_TEXT/UTF8
Codec ID/Info                          : UTF-8 Plain Text
Duration                               : 58 min 19 s
Bit rate                               : 50 b/s
Count of elements                      : 739
Stream size                            : 21.4 KiB (0%)
Language                               : Spanish
Default                                : No
Forced                                 : No

 

Download Links

CONTRASEÑA PARA DESCOMPRIMIR

APORTES NUEVOS

cinemaniahdd.com

APORTES VIEJOS

CinemaniaHD.org

COMPRA O RENUEVA TU PREMIUM DE UPLOADED DESDE EL SIGUIENTE LINK:

http://ul.to/ref/9821430

SI GUSTAS PUEDES SEGUIRNOS EN LAS REDES SOCIALES

Facebook

Twitter

Post Relacionados