The Matrix (1999) [Remastered] Full 1080p Latino

Thomas Anderson lleva una doble vida: por el día es programador en una importante empresa de software, y por la noche un hacker informático llamado Neo. Su vida no volverá a ser igual cuando unos misteriosos personajes le inviten a descubrir la pregunta que no le deja dormir, ¿Qué es Matrix?



Titulo original The Matrix
Audio Español Latino AC3 2.0 BLURAY - Ingles AC3 5.1 BLURAY
Calidad: Full 1080p Resolucion: 1920x1080p Formato: MKV
Encoder: Dracarys Peso: 9.09 GiB Duracion: 2h 18m
Subtitulos: Español Latino PGS - Ingles PGS
  • No hay video embed

Format                                   : Matroska
Format version                           : Version 4 / Version 2
File size                                : 9.09 GiB
Duration                                 : 2 h 16 min
Overall bit rate                         : 9 547 kb/s
Movie name                               : CinemaniaHDD.net
Encoded date                             : UTC 2018-10-10 19:35:37 / UTC 2018-09-23T04:50:36Z
Writing application                      : mkvmerge v15.0.0 ('Duel with the Devil') 64-bit
Writing library                          : libebml v1.3.5 + libmatroska v1.4.5 / Lavf57.7.2

Video
ID                                       : 1
Format                                   : AVC
Format/Info                              : Advanced Video Codec
Format profile                           : High@L4.1
Format settings                          : CABAC / 4 Ref Frames
Format settings, CABAC                   : Yes
Format settings, RefFrames               : 4 frames
Codec ID                                 : V_MPEG4/ISO/AVC
Duration                                 : 2 h 16 min
Bit rate                                 : 8 717 kb/s
Width                                    : 1 920 pixels
Height                                   : 1 080 pixels
Display aspect ratio                     : 16:9
Frame rate mode                          : Constant
Frame rate                               : 23.976 (24000/1001) FPS
Color space                              : YUV
Chroma subsampling                       : 4:2:0
Bit depth                                : 8 bits
Scan type                                : Progressive
Bits/(Pixel*Frame)                       : 0.175
Stream size                              : 8.30 GiB (91%)
Writing library                          : x264 core 148 r2708 86b7198
Encoding settings                        : cabac=1 / ref=4 / deblock=1:0:0 / analyse=0x3:0x133 / me=esa / subme=10 / psy=1 / psy_rd=1.00:0.00 / mixed_ref=1 / me_range=24 / chroma_me=1 / trellis=2 / 8x8dct=1 / cqm=0 / deadzone=21,11 / fast_pskip=1 / chroma_qp_offset=-2 / threads=34 / lookahead_threads=5 / sliced_threads=0 / nr=0 / decimate=1 / interlaced=0 / bluray_compat=0 / constrained_intra=0 / bframes=8 / b_pyramid=2 / b_adapt=2 / b_bias=0 / direct=3 / weightb=1 / open_gop=0 / weightp=2 / keyint=240 / keyint_min=24 / scenecut=40 / intra_refresh=0 / rc_lookahead=60 / rc=crf / mbtree=1 / crf=20.0 / qcomp=0.60 / qpmin=0 / qpmax=69 / qpstep=4 / vbv_maxrate=62500 / vbv_bufsize=78125 / crf_max=0.0 / nal_hrd=none / filler=0 / ip_ratio=1.40 / aq=1:1.00
Language                                 : English
Default                                  : Yes
Forced                                   : No
Color range                              : Limited
Color primaries                          : BT.709
Transfer characteristics                 : BT.709
Matrix coefficients                      : BT.709
Statistics Tags Issue                    : mkvmerge v15.0.0 ('Duel with the Devil') 64-bit 2018-10-10 19:35:37 / mkvmerge v15.0.0 ('Duel with the Devil') 64-bit 2018-10-10 19:35:37 / UTC 2018-09-23T04:50:36Z
FromStats_BitRate                        : 8885015
FromStats_Duration                       : 02:16:20.589000000
FromStats_FrameCount                     : 196138
FromStats_StreamSize                     : 9085582778

Audio #1
ID                                       : 2
Format                                   : AC-3
Format/Info                              : Audio Coding 3
Mode                                     : Dolby Digital
Format settings, Endianness              : Big
Codec ID                                 : A_AC3
Duration                                 : 2 h 16 min
Bit rate mode                            : Constant
Bit rate                                 : 192 kb/s
Channel(s)                               : 2 channels
Channel positions                        : Front: L R
Sampling rate                            : 48.0 kHz
Frame rate                               : 31.250 FPS (1536 SPF)
Bit depth                                : 16 bits
Compression mode                         : Lossy
Delay relative to video                  : 1 s 168 ms
Stream size                              : 187 MiB (2%)
Language                                 : Spanish
Service kind                             : Complete Main
Default                                  : Yes
Forced                                   : No
Statistics Tags Issue                    : mkvmerge v15.0.0 ('Duel with the Devil') 64-bit 2018-10-10 19:35:37 / mkvmerge v15.0.0 ('Duel with the Devil') 64-bit 2018-10-10 19:35:37 / UTC 2018-09-23T04:50:36Z
FromStats_BitRate                        : 192000
FromStats_Duration                       : 02:16:17.856000000
FromStats_FrameCount                     : 255558
FromStats_StreamSize                     : 196268544

Audio #2
ID                                       : 3
Format                                   : AC-3
Format/Info                              : Audio Coding 3
Format settings, Endianness              : Big
Codec ID                                 : A_AC3
Duration                                 : 2 h 16 min
Bit rate mode                            : Constant
Bit rate                                 : 448 kb/s
Channel(s)                               : 6 channels
Channel positions                        : Front: L C R, Side: L R, LFE
Sampling rate                            : 48.0 kHz
Frame rate                               : 31.250 FPS (1536 SPF)
Bit depth                                : 16 bits
Compression mode                         : Lossy
Stream size                              : 437 MiB (5%)
Language                                 : English
Service kind                             : Complete Main
Default                                  : No
Forced                                   : No
Statistics Tags Issue                    : mkvmerge v15.0.0 ('Duel with the Devil') 64-bit 2018-10-10 19:35:37 / mkvmerge v15.0.0 ('Duel with the Devil') 64-bit 2018-10-10 19:35:37 / UTC 2018-09-23T04:50:36Z
FromStats_BitRate                        : 448000
FromStats_Duration                       : 02:16:20.640000000
FromStats_FrameCount                     : 255645
FromStats_StreamSize                     : 458115840

Text #1
ID                                       : 4
Format                                   : PGS
Muxing mode                              : zlib
Codec ID                                 : S_HDMV/PGS
Codec ID/Info                            : Picture based subtitle format used on BDs/HD-DVDs
Language                                 : English
Default                                  : No
Forced                                   : No
Statistics Tags Issue                    : mkvmerge v15.0.0 ('Duel with the Devil') 64-bit 2018-10-10 19:35:37 / mkvmerge v15.0.0 ('Duel with the Devil') 64-bit 2018-10-10 19:35:37 / UTC 2018-09-23T04:50:36Z
FromStats_BitRate                        : 22876
FromStats_Duration                       : 02:15:33.208000000
FromStats_FrameCount                     : 2743
FromStats_StreamSize                     : 23257342

Text #2
ID                                       : 5
Format                                   : PGS
Muxing mode                              : zlib
Codec ID                                 : S_HDMV/PGS
Codec ID/Info                            : Picture based subtitle format used on BDs/HD-DVDs
Language                                 : Spanish
Default                                  : No
Forced                                   : No
Statistics Tags Issue                    : mkvmerge v15.0.0 ('Duel with the Devil') 64-bit 2018-10-10 19:35:37 / mkvmerge v15.0.0 ('Duel with the Devil') 64-bit 2018-10-10 19:35:37 / UTC 2018-09-23T04:50:36Z
FromStats_BitRate                        : 21884
FromStats_Duration                       : 02:15:28.036000000
FromStats_FrameCount                     : 2628
FromStats_StreamSize                     : 22234952

Menu
00:00:00.000                             : :Chapter 1
00:03:26.957                             : :Chapter 2
00:06:36.813                             : :Chapter 3
00:09:43.833                             : :Chapter 4
00:11:59.469                             : :Chapter 5
00:16:48.591                             : :Chapter 6
00:21:34.710                             : :Chapter 7
00:25:09.758                             : :Chapter 8
00:28:52.314                             : :Chapter 9
00:32:26.361                             : :Chapter 10
00:35:23.038                             : :Chapter 11
00:38:42.070                             : :Chapter 12
00:44:23.744                             : :Chapter 13
00:46:34.709                             : :Chapter 14
00:48:59.019                             : :Chapter 15
00:53:32.459                             : :Chapter 16
00:56:33.307                             : :Chapter 17
00:59:02.456                             : :Chapter 18
01:01:09.749                             : :Chapter 19
01:05:17.664                             : :Chapter 20
01:07:47.981                             : :Chapter 21
01:12:34.600                             : :Chapter 22
01:17:50.749                             : :Chapter 23
01:21:04.276                             : :Chapter 24
01:25:06.518                             : :Chapter 25
01:29:46.298                             : :Chapter 26
01:31:28.733                             : :Chapter 27
01:37:26.007                             : :Chapter 28
01:41:06.143                             : :Chapter 29
01:44:21.505                             : :Chapter 30
01:47:01.665                             : :Chapter 31
01:50:19.696                             : :Chapter 32
01:52:57.854                             : :Chapter 33
01:56:38.074                             : :Chapter 34
01:58:50.540                             : :Chapter 35
02:02:28.591                             : :Chapter 36
02:05:42.785                             : :Chapter 37
02:08:47.970                             : :Chapter 38

 

Download Links

CONTRASEÑA PARA DESCOMPRIMIR

APORTES NUEVOS

cinemaniahdd.com

APORTES VIEJOS

CinemaniaHD.org

COMPRA O RENUEVA TU PREMIUM DE UPLOADED DESDE EL SIGUIENTE LINK:

http://ul.to/ref/9821430

SI GUSTAS PUEDES SEGUIRNOS EN LAS REDES SOCIALES

Facebook

Twitter

Post Relacionados