The Night Comes For Us (2018) NF 1080p Latino

The Night Comes For Us (2018) NF 1080p Latino; Mega, Google Drive. Un antiguo sicario debe proteger a una joven mientras trata de escapar de la tríada a la que pertenecía. En su fuga, desatará una violenta batalla en las calles de Djakarta. Una hiperbólica cinta de acción urbana, indispensable para cualquier fan de la adrenalina.
Audio Latino AC3 5.1 Netflix – Audio Indonesio E-AC3 5.1 Netflix



Titulo Original The Night Comes For Us
Año 2018-11-17
Duracion 2h 1m
Director
Reparto , , , , , , , , , , , , , , ,
Productora
Genero
Titulo original The Night Comes For Us
Audio Se especifica abajo de la Sinopsis
Calidad: WEBDL Resolucion: 1920x1080p Formato: MKV
Encoder: CM Peso: 4.25 GiB Duracion: 2h 1m
Subtitulos: Español Latino SRT- FORZADOS SRT
  • No hay video embed

The Night Comes For Us (2018) Web-DL NF 1080p Latino.mkv
Format: Matroska
Format version: Version 4 / Version 2
File size : 4.25 GiB
Duration: 2 h 0 min
Overall bit rate mode : Variable
Overall bit rate: 5 042 kb/s
Movie name: CinemaniaHDD.Net
Encoded date: UTC 2018-10-20 04:28:01
Writing application : mkvmerge v25.0.0 ('Prog Noir') 64-bit
Writing library : libebml v1.3.6 + libmatroska v1.4.9

Video
ID: 1
Format: AVC
Format/Info : Advanced Video Codec
Format profile: Main@L4
Format settings : CABAC / 3 Ref Frames
Format settings, CABAC: Yes
Format settings, RefFrames: 3 frames
Codec ID: V_MPEG4/ISO/AVC
Duration: 2 h 0 min
Bit rate mode : Variable
Bit rate: 4 020 kb/s
Maximum bit rate: 6 030 kb/s
Width : 1 920 pixels
Height: 1 080 pixels
Display aspect ratio: 16:9
Frame rate mode : Constant
Frame rate: 23.976 (24000/1001) FPS
Color space : YUV
Chroma subsampling: 4:2:0
Bit depth : 8 bits
Scan type : Progressive
Bits/(Pixel*Frame): 0.081
Stream size : 3.39 GiB (80%)
Title : HD1080p [Web-DL]
Writing library : x264 core 148 r2715 7e75228
Encoding settings : cabac=1 / ref=3 / deblock=1:0:0 / analyse=0x1:0x111 / me=umh / subme=10 / psy=1 / psy_rd=1.00:0.00 / mixed_ref=1 / me_range=24 / chroma_me=1 / trellis=2 / 8x8dct=0 / cqm=0 / deadzone=21,11 / fast_pskip=1 / chroma_qp_offset=-2 / threads=8 / lookahead_threads=1 / sliced_threads=0 / nr=0 / decimate=1 / interlaced=0 / bluray_compat=0 / stitchable=1 / constrained_intra=0 / bframes=2 / b_pyramid=0 / b_adapt=2 / b_bias=0 / direct=3 / weightb=1 / open_gop=0 / weightp=2 / keyint=48 / keyint_min=25 / scenecut=0 / intra_refresh=0 / rc_lookahead=48 / rc=2pass / mbtree=1 / bitrate=4020 / ratetol=1.0 / qcomp=0.50 / qpmin=6 / qpmax=51 / qpstep=4 / cplxblur=20.0 / qblur=0.5 / vbv_maxrate=6030 / vbv_bufsize=8040 / nal_hrd=vbr / filler=0 / ip_ratio=1.40 / aq=1:1.00
Default : Yes
Forced: No

Audio #1
ID: 2
Format: AC-3
Format/Info : Audio Coding 3
Format settings, Endianness : Big
Codec ID: A_AC3
Duration: 2 h 0 min
Bit rate mode : Constant
Bit rate: 384 kb/s
Channel(s): 6 channels
Channel positions : Front: L C R, Side: L R, LFE
Sampling rate : 48.0 kHz
Frame rate: 31.250 FPS (1536 SPF)
Bit depth : 16 bits
Compression mode: Lossy
Stream size : 332 MiB (8%)
Title : AC3_5.1_NF_Esp
Language: Spanish
Service kind: Complete Main
Default : Yes
Forced: Yes

Audio #2
ID: 3
Format: E-AC-3
Format/Info : Enhanced Audio Coding 3
Format settings, Endianness : Big
Codec ID: A_EAC3
Duration: 2 h 0 min
Bit rate mode : Constant
Bit rate: 640 kb/s
Channel(s): 6 channels
Channel positions : Front: L C R, Side: L R, LFE
Sampling rate : 48.0 kHz
Frame rate: 187.500 FPS (256 SPF)
Compression mode: Lossy
Stream size : 553 MiB (13%)
Title : E-AC3_5.1_NF_Ind
Language: Indonesian
Service kind: Complete Main
Default : No
Forced: No

Text #1
ID: 4
Format: UTF-8
Codec ID: S_TEXT/UTF8
Codec ID/Info : UTF-8 Plain Text
Duration: 2 h 0 min
Bit rate: 17 b/s
Count of elements : 543
Stream size : 15.4 KiB (0%)
Title : Sub_Forzados
Language: Spanish
Default : Yes
Forced: Yes

Text #2
ID: 5
Format: UTF-8
Codec ID: S_TEXT/UTF8
Codec ID/Info : UTF-8 Plain Text
Duration: 2 h 0 min
Bit rate: 5 b/s
Count of elements : 148
Stream size : 4.93 KiB (0%)
Title : Sub_Esp
Language: Spanish
Default : No
Forced: No

Text #3
ID: 6
Format: UTF-8
Codec ID: S_TEXT/UTF8
Codec ID/Info : UTF-8 Plain Text
Duration: 2 h 0 min
Bit rate: 25 b/s
Count of elements : 802
Stream size : 22.4 KiB (0%)
Title : Sub_Indonesian
Language: Indonesian
Default : No
Forced: No

Download Links

CONTRASEÑA PARA DESCOMPRIMIR

APORTES NUEVOS

cinemaniahdd.com

APORTES VIEJOS

CinemaniaHD.org

COMPRA O RENUEVA TU PREMIUM DE UPLOADED DESDE EL SIGUIENTE LINK:

http://ul.to/ref/9821430

SI GUSTAS PUEDES SEGUIRNOS EN LAS REDES SOCIALES

Facebook

Twitter

Post Relacionados