The Padre (2018) WEB-DL 1080p Latino

Descargar The Padre (2018) WEB-DL 1080p Latino; Mega, Google Drive. El juez estadounidense retirado Randall Nemes y su arma contratada, Gaspar, rastrean a un estafador que se hace pasar por un sacerdote en un pequeño pueblo colombiano y que una chica de 16 años de edad no quiere hacer nada para reunirse con su hermana en el Estados Unidos.



Titulo Original The Padre
Año 2018-09-28
Duracion 1h 38m
Director
Reparto , , , , ,
Productora
Genero
Titulo original The Padre
Audio Español Latino AC3 5.1 DVD - Ingles AC3 5.1 iTunes
Calidad: WEBDL Resolucion: 1920x796p Formato: MKV
Encoder: FGT Peso: 3.51 GiB Duracion: 1h 38m
Subtitulos: Español Latino SRT
  • No hay video embed

El Padre (2018) Web-DL 1080p Latino.mkv
Format: Matroska
Format version: Version 4 / Version 2
File size : 3.51 GiB
Duration: 1 h 35 min
Overall bit rate: 5 291 kb/s
Movie name: CinemaniaHDD.Net
Encoded date: UTC 2018-10-20 02:24:05
Writing application : mkvmerge v25.0.0 ('Prog Noir') 64-bit
Writing library : libebml v1.3.6 + libmatroska v1.4.9
Cover : Yes
Attachments : small_cover.jpg / small_cover_land.jpg / cover.jpg / cover_land.jpg

Video
ID: 1
Format: AVC
Format/Info : Advanced Video Codec
Format profile: High@L4
Format settings : CABAC / 5 Ref Frames
Format settings, CABAC: Yes
Format settings, RefFrames: 5 frames
Codec ID: V_MPEG4/ISO/AVC
Duration: 1 h 35 min
Bit rate: 4 521 kb/s
Width : 1 920 pixels
Height: 796 pixels
Display aspect ratio: 2.40:1
Frame rate mode : Constant
Frame rate: 23.976 (23976/1000) FPS
Color space : YUV
Chroma subsampling: 4:2:0
Bit depth : 8 bits
Scan type : Progressive
Bits/(Pixel*Frame): 0.123
Stream size : 3.00 GiB (85%)
Title : HD1080p [Web-DL]
Language: English
Default : Yes
Forced: No
Color range : Limited
Color primaries : BT.709
Transfer characteristics: BT.709
Matrix coefficients : BT.709

Audio #1
ID: 2
Format: AC-3
Format/Info : Audio Coding 3
Format settings, Endianness : Big
Codec ID: A_AC3
Duration: 1 h 35 min
Bit rate mode : Constant
Bit rate: 384 kb/s
Channel(s): 6 channels
Channel positions : Front: L C R, Side: L R, LFE
Sampling rate : 48.0 kHz
Frame rate: 31.250 FPS (1536 SPF)
Bit depth : 16 bits
Compression mode: Lossy
Stream size : 261 MiB (7%)
Title : AC3_5.1_DVD_Esp
Language: Spanish
Service kind: Complete Main
Default : Yes
Forced: Yes

Audio #2
ID: 3
Format: AC-3
Format/Info : Audio Coding 3
Format settings, Endianness : Big
Codec ID: A_AC3
Duration: 1 h 35 min
Bit rate mode : Constant
Bit rate: 384 kb/s
Channel(s): 6 channels
Channel positions : Front: L C R, Side: L R, LFE
Sampling rate : 48.0 kHz
Frame rate: 31.250 FPS (1536 SPF)
Bit depth : 16 bits
Compression mode: Lossy
Stream size : 261 MiB (7%)
Title : AC3_5.1_Web-DL_Eng
Language: English
Service kind: Complete Main
Default : No
Forced: No

Text
ID: 4
Format: UTF-8
Codec ID: S_TEXT/UTF8
Codec ID/Info : UTF-8 Plain Text
Duration: 1 h 32 min
Bit rate: 34 b/s
Count of elements : 746
Stream size : 23.0 KiB (0%)
Title : Sub_Esp
Language: Spanish
Default : Yes
Forced: No

Menu
00:00:00.000: en:1
00:05:57.732: en:2
00:12:42.553: en:3
00:18:00.286: en:4
00:23:41.000: en:5
00:29:40.483: en:6
00:35:47.140: en:7
00:43:16.506: en:8
00:46:55.683: en:9
00:53:58.688: en:10
00:57:25.519: en:11
01:04:34.154: en:12
01:08:47.406: en:13
01:16:22.943: en:14
01:25:41.042: en:15
01:27:56.509: en:16

Download Links

CONTRASEÑA PARA DESCOMPRIMIR

APORTES NUEVOS

cinemaniahdd.com

APORTES VIEJOS

CinemaniaHD.org

COMPRA O RENUEVA TU PREMIUM DE UPLOADED DESDE EL SIGUIENTE LINK:

http://ul.to/ref/9821430

SI GUSTAS PUEDES SEGUIRNOS EN LAS REDES SOCIALES

Facebook

Twitter

Post Relacionados