The Shanghai Job (2017) 1080p Latino

The Shanghai Job [S.M.A.R.T. Chase] (2017) 1080p Latino. Mega, Google Drive; A Danny Stratton, un agente de seguridad apartado del negocio, se le presenta la oportunidad de escoltar una valiosa vasija china fuera de Shanghai, pero en el trayecto le tienden una emboscada. Con la vida de la mujer que ama en peligro, Danny y su equipo no solo deberán salvarla, sino también ser lo suficientemente astutos para evitar a la policía, recuperar la vasija y restablecer su reputación.



Titulo Original S.M.A.R.T. Chase
Año 2017-09-30
Duracion 1h 35m
Director
Reparto , , , , , , ,
Productora
Genero
Titulo original S.M.A.R.T. Chase
Audio Español Latino AC3 2.0 iTUNES - Ingles AC3 5.1 BLURAY
Calidad: 1080p Resolucion: 1920x800p Formato: MKV
Encoder: CinefiloCool Peso: 2.73 GiB Duracion: 1h 35m
Subtitulos: Español Latino SRT - Ingles SRT
  • No hay video embed

The Shanghai Job (2017) 1080p Latino.mkv
Format: Matroska
Format version: Version 4 / Version 2
File size : 2.73 GiB
Duration: 1 h 33 min
Overall bit rate: 4 169 kb/s
Movie name: CinemaniaHDD.Net
Encoded date: UTC 2018-10-09 20:00:16 / UTC 2018-10-09T04:37:42Z
Writing application : mkvmerge v25.0.0 ('Prog Noir') 64-bit
Writing library : libebml v1.3.6 + libmatroska v1.4.9 / Lavf57.7.2

Video
ID: 1
Format: AVC
Format/Info : Advanced Video Codec
Format profile: High@L4.1
Format settings : CABAC / 5 Ref Frames
Format settings, CABAC: Yes
Format settings, RefFrames: 5 frames
Codec ID: V_MPEG4/ISO/AVC
Duration: 1 h 33 min
Bit rate: 3 500 kb/s
Width : 1 920 pixels
Height: 800 pixels
Display aspect ratio: 2.40:1
Frame rate mode : Constant
Frame rate: 24.000 FPS
Color space : YUV
Chroma subsampling: 4:2:0
Bit depth : 8 bits
Scan type : Progressive
Bits/(Pixel*Frame): 0.095
Stream size : 2.21 GiB (81%)
Title : HD1080p [Bluray]
Writing library : x264 core 155 r2893 b00bcaf
Encoding settings : cabac=1 / ref=5 / deblock=1:0:0 / analyse=0x3:0x113 / me=hex / subme=8 / psy=1 / psy_rd=1.00:0.00 / mixed_ref=1 / me_range=16 / chroma_me=1 / trellis=2 / 8x8dct=1 / cqm=0 / deadzone=21,11 / fast_pskip=1 / chroma_qp_offset=-2 / threads=25 / lookahead_threads=4 / sliced_threads=0 / nr=0 / decimate=1 / interlaced=0 / bluray_compat=0 / constrained_intra=0 / bframes=3 / b_pyramid=2 / b_adapt=1 / b_bias=0 / direct=3 / weightb=1 / open_gop=0 / weightp=2 / keyint=240 / keyint_min=24 / scenecut=40 / intra_refresh=0 / rc_lookahead=50 / rc=abr / mbtree=1 / bitrate=3500 / ratetol=1.0 / qcomp=0.60 / qpmin=0 / qpmax=69 / qpstep=4 / vbv_maxrate=62500 / vbv_bufsize=78125 / nal_hrd=none / filler=0 / ip_ratio=1.40 / aq=1:1.00
Default : Yes
Forced: No
Color range : Limited
Color primaries : BT.709
Transfer characteristics: BT.709
Matrix coefficients : BT.709
Statistics Tags Issue : mkvmerge v25.0.0 ('Prog Noir') 64-bit 2018-10-09 20:00:16 / mkvmerge v25.0.0 ('Prog Noir') 64-bit 2018-10-09 20:00:16 / UTC 2018-10-09T04:37:42Z
FromStats_BitRate : 3463850
FromStats_Duration: 01:33:36.417000000
FromStats_FrameCount: 134794
FromStats_StreamSize: 2431803819

Audio #1
ID: 2
Format: AC-3
Format/Info : Audio Coding 3
Format settings, Endianness : Big
Codec ID: A_AC3
Duration: 1 h 33 min
Bit rate mode : Constant
Bit rate: 256 kb/s
Channel(s): 2 channels
Channel positions : Front: L R
Sampling rate : 48.0 kHz
Frame rate: 31.250 FPS (1536 SPF)
Bit depth : 16 bits
Compression mode: Lossy
Delay relative to video : -5 ms
Stream size : 171 MiB (6%)
Title : AC3_2.0_Itunes_Esp
Language: Spanish
Service kind: Complete Main
Default : Yes
Forced: No
Statistics Tags Issue : mkvmerge v25.0.0 ('Prog Noir') 64-bit 2018-10-09 20:00:16 / mkvmerge v25.0.0 ('Prog Noir') 64-bit 2018-10-09 20:00:16 / UTC 2018-10-09T04:37:42Z
FromStats_BitRate : 256000
FromStats_Duration: 01:33:36.416000000
FromStats_FrameCount: 175513
FromStats_StreamSize: 179725312

Audio #2
ID: 3
Format: AC-3
Format/Info : Audio Coding 3
Format settings, Endianness : Big
Codec ID: A_AC3
Duration: 1 h 33 min
Bit rate mode : Constant
Bit rate: 448 kb/s
Channel(s): 6 channels
Channel positions : Front: L C R, Side: L R, LFE
Sampling rate : 48.0 kHz
Frame rate: 31.250 FPS (1536 SPF)
Bit depth : 16 bits
Compression mode: Lossy
Stream size : 300 MiB (11%)
Title : AC3_5.1_Bluray_Eng
Language: English
Service kind: Complete Main
Default : No
Forced: No
Statistics Tags Issue : mkvmerge v25.0.0 ('Prog Noir') 64-bit 2018-10-09 20:00:16 / mkvmerge v25.0.0 ('Prog Noir') 64-bit 2018-10-09 20:00:16 / UTC 2018-10-09T04:37:42Z
FromStats_BitRate : 448000
FromStats_Duration: 01:33:36.416000000
FromStats_FrameCount: 175513
FromStats_StreamSize: 314519296

Text #1
ID: 4
Format: UTF-8
Codec ID: S_TEXT/UTF8
Codec ID/Info : UTF-8 Plain Text
Title : Sub_Esp
Language: Spanish
Default : No
Forced: No
Statistics Tags Issue : mkvmerge v25.0.0 ('Prog Noir') 64-bit 2018-10-09 20:00:16 / mkvmerge v25.0.0 ('Prog Noir') 64-bit 2018-10-09 20:00:16 / UTC 2018-10-09T04:37:42Z
FromStats_BitRate : 44
FromStats_Duration: 01:27:58.196000000
FromStats_FrameCount: 887
FromStats_StreamSize: 29186

Text #2
ID: 5
Format: UTF-8
Codec ID: S_TEXT/UTF8
Codec ID/Info : UTF-8 Plain Text
Title : Sub_Eng
Language: English
Default : No
Forced: No
Statistics Tags Issue : mkvmerge v25.0.0 ('Prog Noir') 64-bit 2018-10-09 20:00:16 / mkvmerge v25.0.0 ('Prog Noir') 64-bit 2018-10-09 20:00:16 / UTC 2018-10-09T04:37:42Z
FromStats_BitRate : 59
FromStats_Duration: 01:32:56.592000000
FromStats_FrameCount: 1358
FromStats_StreamSize: 41609

Menu
00:00:00.000: :Chapter 1
00:01:30.000: :Chapter 2
00:04:00.000: :Chapter 3
00:08:09.208: :Chapter 4
00:13:02.208: :Chapter 5
00:17:22.000: :Chapter 6
00:23:41.625: :Chapter 7
00:26:54.375: :Chapter 8
00:32:39.500: :Chapter 9
00:38:03.917: :Chapter 10
00:42:24.458: :Chapter 11
00:47:41.708: :Chapter 12
00:51:03.875: :Chapter 13
00:56:56.667: :Chapter 14
01:03:29.958: :Chapter 15
01:06:57.458: :Chapter 16
01:11:23.500: :Chapter 17
01:15:56.208: :Chapter 18
01:22:09.875: :Chapter 19
01:29:13.500: :Chapter 20

Download Links

CONTRASEÑA PARA DESCOMPRIMIR

APORTES NUEVOS

cinemaniahdd.com

APORTES VIEJOS

CinemaniaHD.org

COMPRA O RENUEVA TU PREMIUM DE UPLOADED DESDE EL SIGUIENTE LINK:

http://ul.to/ref/9821430

SI GUSTAS PUEDES SEGUIRNOS EN LAS REDES SOCIALES

Facebook

Twitter

Post Relacionados