The Terrible Two (2018) WEB-DL 1080p Subtitulado

the-terrible-two-42057-poster.jpg

Albert y Rose Poe compraron la casa de sus sueños hace siete años en Greenfield, Carolina del Norte. No tenían idea de los horrores indescriptibles que tenían lugar en la casa antes de que se mudaran. Si lo hubieran sabido, entonces sus hijos, Addi y Jade seguirían vivos. En cambio, los Poes ahora se encuentran encarcelados en la casa que pensaban que era su lugar seguro, y luchando contra sus dos hijas para sobrevivir.



Titulo Original The Terrible Two
Año 2018-03-06
Duracion 1h 24m
Director
Reparto , , , , , , , , , , , , ,
Productora
Genero
Titulo original The Terrible Two
Audio Ingles AC3 5.1 iTunes
Calidad: 1080p Resolucion: 1920x1080 Formato: MKV
Encoder: Lpratto Peso: 3.29 GB Duracion: 1h 24m
Subtitulos: Español Latino SRT
  • No hay video embed

Format: Matroska
Format version: Version 4 / Version 2
File size : 3.30 GiB
Duration: 1 h 23 min
Overall bit rate: 5 628 kb/s
Movie name: CinemaniaHDD.com
Encoded date: UTC 2018-03-16 12:04:54
Writing application : mkvmerge v15.0.0 ('Duel with the Devil') 64-bit
Writing library : libebml v1.3.5 + libmatroska v1.4.5
 
Video
ID: 1
Format: AVC
Format/Info : Advanced Video Codec
Format profile: High@L4
Format settings, CABAC: Yes
Format settings, RefFrames: 4 frames
Codec ID: V_MPEG4/ISO/AVC
Duration: 1 h 23 min
Bit rate: 5 242 kb/s
Width : 1 920 pixels
Height: 1 080 pixels
Display aspect ratio: 16:9
Frame rate mode : Constant
Frame rate: 23.976 (23976/1000) FPS
Color space : YUV
Chroma subsampling: 4:2:0
Bit depth : 8 bits
Scan type : Progressive
Bits/(Pixel*Frame): 0.105
Stream size : 3.07 GiB (93%)
Language: English
Default : Yes
Forced: No
Color range : Limited
Color primaries : BT.709
Transfer characteristics: BT.709
Matrix coefficients : BT.709
 
Audio
ID: 2
Format: AC-3
Format/Info : Audio Coding 3
Format settings, Endianness : Big
Codec ID: A_AC3
Duration: 1 h 23 min
Bit rate mode : Constant
Bit rate: 384 kb/s
Channel(s): 6 channels
Channel positions : Front: L C R, Side: L R, LFE
Sampling rate : 48.0 kHz
Frame rate: 31.250 FPS (1536 SPF)
Bit depth : 16 bits
Compression mode: Lossy
Delay relative to video : -42 ms
Stream size : 231 MiB (7%)
Language: English
Service kind: Complete Main
Default : Yes
Forced: No
 
Text
ID: 3
Format: UTF-8
Codec ID: S_TEXT/UTF8
Codec ID/Info : UTF-8 Plain Text
Duration: 1 h 19 min
Bit rate: 50 b/s
Count of elements : 928
Stream size : 29.8 KiB (0%)
Language: Spanish
Default : Yes
Forced: No

Download Links

CONTRASEÑA PARA DESCOMPRIMIR

APORTES NUEVOS

cinemaniahdd.com

APORTES VIEJOS

CinemaniaHD.org

COMPRA O RENUEVA TU PREMIUM DE UPLOADED DESDE EL SIGUIENTE LINK:

http://ul.to/ref/9821430

SI GUSTAS PUEDES SEGUIRNOS EN LAS REDES SOCIALES

Facebook

Twitter

Post Relacionados