Tiempo muerto (2016) WEB-DL 1080p Latino

tiempo-muerto-42037-poster.jpg

Todavía afligido por la muerte de su mujer, un hombre hace lo imposible por volverla a ver. Sin embargo, su reencuentro tendrá un precio muy alto.



Titulo Original Tiempo muerto
Año 2016-05-12
Duracion 1h 43m
Director
Reparto , , , ,
Productora
Genero
Titulo original Tiempo muerto
Audio Español Latino AC3 2.0 DVD
Calidad: 1080p Resolucion: 1920x1080 Formato: MKV
Encoder: Lpratto Peso: 5.06 GB Duracion: 1h 43m
Subtitulos: Español Latino SRT
  • No hay video embed

Format: Matroska
Format version: Version 4 / Version 2
File size : 5.07 GiB
Duration: 1 h 42 min
Overall bit rate: 7 071 kb/s
Movie name: CinemaniaHDD.com
Encoded date: UTC 2018-03-15 11:34:16
Writing application : mkvmerge v15.0.0 ('Duel with the Devil') 64-bit
Writing library : libebml v1.3.5 + libmatroska v1.4.5
 
Video
ID: 1
Format: AVC
Format/Info : Advanced Video Codec
Format profile: Main@L4
Format settings, CABAC: Yes
Format settings, RefFrames: 2 frames
Format settings, GOP: M=1, N=12
Codec ID: V_MPEG4/ISO/AVC
Duration: 1 h 42 min
Bit rate: 6 814 kb/s
Width : 1 920 pixels
Height: 1 080 pixels
Display aspect ratio: 16:9
Frame rate mode : Constant
Frame rate: 24.000 FPS
Color space : YUV
Chroma subsampling: 4:2:0
Bit depth : 8 bits
Scan type : Progressive
Bits/(Pixel*Frame): 0.137
Stream size : 4.89 GiB (96%)
Default : Yes
Forced: No
 
Audio
ID: 2
Format: AC-3
Format/Info : Audio Coding 3
Format settings, Endianness : Big
Codec ID: A_AC3
Duration: 1 h 42 min
Bit rate mode : Constant
Bit rate: 256 kb/s
Channel(s): 2 channels
Channel positions : Front: L R
Sampling rate : 48.0 kHz
Frame rate: 31.250 FPS (1536 SPF)
Bit depth : 16 bits
Compression mode: Lossy
Stream size : 188 MiB (4%)
Title : Latino
Language: Spanish
Service kind: Complete Main
Default : Yes
Forced: No
 
Text
ID: 3
Format: UTF-8
Codec ID: S_TEXT/UTF8
Codec ID/Info : UTF-8 Plain Text
Duration: 1 h 36 min
Bit rate: 52 b/s
Count of elements : 1110
Stream size : 36.9 KiB (0%)
Title : Latino [CC]
Language: Spanish
Default : No
Forced: No

Download Links

CONTRASEÑA PARA DESCOMPRIMIR

APORTES NUEVOS

cinemaniahdd.com

APORTES VIEJOS

CinemaniaHD.org

COMPRA O RENUEVA TU PREMIUM DE UPLOADED DESDE EL SIGUIENTE LINK:

http://ul.to/ref/9821430

SI GUSTAS PUEDES SEGUIRNOS EN LAS REDES SOCIALES

Facebook

Twitter

Post Relacionados