Un Gran Dinosaurio (2015) FULL 1080p Latino-Ingles

¿Qué hubiera pasado si el asteroide que cambió para siempre la vida en la Tierra hubiera esquivado el planeta y los dinosaurios no se hubieran extinguido nunca? Un viaje al mundo de los dinosaurios donde un Apatosaurus llamado Arlo se hace amigo de un humano, aunque resulte asombroso. Mientras viaja por un paisaje desolado y misterioso, Arlo aprende a enfrentarse a sus temores y descubre de lo que es capaz.



Titulo Original The Good Dinosaur
Año 2015
Duracion 100 min.
Director
Reparto Animation
Productora Animation
Genero
Titulo original The Good Dinosaur (2015) FULL 1080p Latino-Ingles
Audio Español Latino [AC3 5.1 BD] - Inglés [AC3 5.1 BD]
Calidad: FULL 1080p Resolucion: 1920x1080 Formato: MKV
Encoder: ADDKiQ Peso: 4.2 GB Duracion: 100 min.
Subtitulos: Español Latino [PGS] - Ingles [PGS]
  • No hay video embed

General
Complete name : P:\The Good Dinosaur cinemaniahdd.com.mkv
Format : Matroska
Format version : Version 2
File size : 4.07 GiB
Duration : 1h 33mn
Overall bit rate : 6 215 Kbps
Encoded date : UTC 2016-02-10T03:40:11Z
Writing application : HandBrake 0.10.3 2016012200
Writing library : Lavf55.12.0 / Lavf55.12.0

Video
ID : 1
Format : AVC
Format/Info : Advanced Video Codec
Format profile : High@L4.1
Format settings, CABAC : Yes
Format settings, ReFrames : 4 frames
Codec ID : V_MPEG4/ISO/AVC
Duration : 1h 33mn
Bit rate : 4 811 Kbps
Width : 1 920 pixels
Height : 1 080 pixels
Display aspect ratio : 16:9
Frame rate mode : Constant
Frame rate : 23.976 (24000/1001) fps
Color space : YUV
Chroma subsampling : 4:2:0
Bit depth : 8 bits
Scan type : Progressive
Bits/(Pixel*Frame) : 0.097
Stream size : 3.15 GiB (77%)
Writing library : x264 core 142 r2479 dd79a61
Encoding settings : cabac=1 / ref=4 / deblock=1:0:0 / analyse=0x3:0x133 / me=esa / subme=10 / psy=1 / psy_rd=1.00:0.00 / mixed_ref=1 / me_range=24 / chroma_me=1 / trellis=2 / 8x8dct=1 / cqm=0 / deadzone=21,11 / fast_pskip=1 / chroma_qp_offset=-2 / threads=36 / lookahead_threads=6 / sliced_threads=0 / nr=0 / decimate=1 / interlaced=0 / bluray_compat=0 / constrained_intra=0 / bframes=8 / b_pyramid=2 / b_adapt=2 / b_bias=0 / direct=3 / weightb=1 / open_gop=0 / weightp=2 / keyint=240 / keyint_min=24 / scenecut=40 / intra_refresh=0 / rc_lookahead=60 / rc=crf / mbtree=1 / crf=22.0 / qcomp=0.60 / qpmin=0 / qpmax=69 / qpstep=4 / vbv_maxrate=62500 / vbv_bufsize=78125 / crf_max=0.0 / nal_hrd=none / filler=0 / ip_ratio=1.40 / aq=1:1.00
Default : Yes
Forced : No
Color range : Limited
Color primaries : BT.709
Transfer characteristics : BT.709
Matrix coefficients : BT.709

Audio #1
ID : 2
Format : AC-3
Format/Info : Audio Coding 3
Mode extension : CM (complete main)
Format settings, Endianness : Big
Codec ID : A_AC3
Duration : 1h 33mn
Bit rate mode : Constant
Bit rate : 640 Kbps
Channel(s) : 6 channels
Channel positions : Front: L C R, Side: L R, LFE
Sampling rate : 48.0 KHz
Frame rate : 31.250 fps (1536 spf)
Compression mode : Lossy
Stream size : 430 MiB (10%)
Title : Surround
Language : Spanish
Default : Yes
Forced : No

Audio #2
ID : 3
Format : AC-3
Format/Info : Audio Coding 3
Mode extension : CM (complete main)
Format settings, Endianness : Big
Codec ID : A_AC3
Duration : 1h 33mn
Bit rate mode : Constant
Bit rate : 640 Kbps
Channel(s) : 6 channels
Channel positions : Front: L C R, Side: L R, LFE
Sampling rate : 48.0 KHz
Frame rate : 31.250 fps (1536 spf)
Compression mode : Lossy
Delay relative to video : -5ms
Stream size : 430 MiB (10%)
Title : Surround
Language : English
Default : No
Forced : No

Text #1
ID : 4
Format : PGS
Codec ID : S_HDMV/PGS
Codec ID/Info : Picture based subtitle format used on BDs/HD-DVDs
Language : English
Default : No
Forced : No

Text #2
ID : 5
Format : PGS
Codec ID : S_HDMV/PGS
Codec ID/Info : Picture based subtitle format used on BDs/HD-DVDs
Language : Spanish
Default : No
Forced : No

Menu
00:00:00.000 : :Chapter 1
00:03:38.081 : :Chapter 2
00:06:16.573 : :Chapter 3
00:08:14.274 : :Chapter 4
00:12:12.721 : :Chapter 5
00:14:34.028 : :Chapter 6
00:17:42.467 : :Chapter 7
00:21:10.758 : :Chapter 8
00:22:58.282 : :Chapter 9
00:26:41.171 : :Chapter 10
00:29:02.730 : :Chapter 11
00:33:10.477 : :Chapter 12
00:35:28.782 : :Chapter 13
00:38:14.572 : :Chapter 14
00:41:08.955 : :Chapter 15
00:45:43.062 : :Chapter 16
00:47:48.062 : :Chapter 17
00:51:48.385 : :Chapter 18
00:55:47.082 : :Chapter 19
01:00:23.066 : :Chapter 20
01:03:59.115 : :Chapter 21
01:05:27.329 : :Chapter 22
01:07:11.891 : :Chapter 23
01:11:06.542 : :Chapter 24
01:13:43.491 : :Chapter 25
01:16:01.546 : :Chapter 26
01:19:08.607 : :Chapter 27
01:23:56.979 : :Chapter 28
01:26:01.229 : :Chapter 29

Download Links

CONTRASEÑA PARA DESCOMPRIMIR

APORTES NUEVOS

cinemaniahdd.com

APORTES VIEJOS

CinemaniaHD.org

COMPRA O RENUEVA TU PREMIUM DE UPLOADED DESDE EL SIGUIENTE LINK:

http://ul.to/ref/9821430

SI GUSTAS PUEDES SEGUIRNOS EN LAS REDES SOCIALES

Facebook

Twitter

Post Relacionados