Un par nada ejemplar (2008) [AMZN] WEB-DL 1080p Latino

Danny (Paul Rudd) y Wheeler (Seann William Scott) son comerciales de una bebida energética. Tras estrellar el vehículo de la empresa son arrestados, y sentenciados a completar 150 horas de servicio a la comunidad haciendo de mentores de niños. Mala idea…

 

 
Latino: E-AC3 5.1  –  Ingles: E-AC3 5.1



Titulo original Role Models
Audio Se especifica abajo de la Sinopsis
Calidad: WEBDL Resolucion: 1920x1040p Formato: MKV
Encoder: Amazon Peso: 9.44 GiB Duracion: 1h 40m
Subtitulos: Español Latino SRT- FORZADOS SRT
  • No hay video embed

Format                                   : Matroska
Format version                           : Version 4 / Version 2
File size                                : 9.44 GiB
Duration                                 : 1 h 38 min
Overall bit rate mode                    : Variable
Overall bit rate                         : 13.7 Mb/s
Movie name                               : CinemaniaHDD.net
Encoded date                             : UTC 2018-10-21 06:05:06
Writing application                      : mkvmerge v15.0.0 ('Duel with the Devil') 64-bit
Writing library                          : libebml v1.3.5 + libmatroska v1.4.5

Video
ID                                       : 1
Format                                   : AVC
Format/Info                              : Advanced Video Codec
Format profile                           : High@L4
Format settings                          : CABAC / 4 Ref Frames
Format settings, CABAC                   : Yes
Format settings, RefFrames               : 4 frames
Codec ID                                 : V_MPEG4/ISO/AVC
Duration                                 : 1 h 38 min
Bit rate mode                            : Variable
Bit rate                                 : 12.4 Mb/s
Maximum bit rate                         : 15.0 Mb/s
Width                                    : 1 920 pixels
Height                                   : 1 040 pixels
Display aspect ratio                     : 1.85:1
Frame rate mode                          : Constant
Frame rate                               : 23.976 (24000/1001) FPS
Color space                              : YUV
Chroma subsampling                       : 4:2:0
Bit depth                                : 8 bits
Scan type                                : Progressive
Bits/(Pixel*Frame)                       : 0.259
Stream size                              : 8.56 GiB (91%)
Language                                 : English
Default                                  : Yes
Forced                                   : No
Color range                              : Limited
Color primaries                          : BT.709
Transfer characteristics                 : BT.709
Matrix coefficients                      : BT.709

Audio #1
ID                                       : 2
Format                                   : E-AC-3
Format/Info                              : Enhanced Audio Coding 3
Format settings, Endianness              : Big
Codec ID                                 : A_EAC3
Duration                                 : 1 h 38 min
Bit rate mode                            : Constant
Bit rate                                 : 640 kb/s
Channel(s)                               : 6 channels
Channel positions                        : Front: L C R, Side: L R, LFE
Sampling rate                            : 48.0 kHz
Frame rate                               : 187.500 FPS (256 SPF)
Compression mode                         : Lossy
Stream size                              : 453 MiB (5%)
Language                                 : Spanish
Service kind                             : Complete Main
Default                                  : Yes
Forced                                   : No

Audio #2
ID                                       : 3
Format                                   : E-AC-3
Format/Info                              : Enhanced Audio Coding 3
Format settings, Endianness              : Big
Codec ID                                 : A_EAC3
Duration                                 : 1 h 38 min
Bit rate mode                            : Constant
Bit rate                                 : 640 kb/s
Channel(s)                               : 6 channels
Channel positions                        : Front: L C R, Side: L R, LFE
Sampling rate                            : 48.0 kHz
Frame rate                               : 187.500 FPS (256 SPF)
Compression mode                         : Lossy
Stream size                              : 453 MiB (5%)
Language                                 : English
Service kind                             : Complete Main
Default                                  : No
Forced                                   : No

Text #1
ID                                       : 4
Format                                   : UTF-8
Codec ID                                 : S_TEXT/UTF8
Codec ID/Info                            : UTF-8 Plain Text
Duration                                 : 1 h 37 min
Bit rate                                 : 100 b/s
Count of elements                        : 2337
Stream size                              : 72.2 KiB (0%)
Language                                 : English
Default                                  : No
Forced                                   : No

Text #2
ID                                       : 5
Format                                   : UTF-8
Codec ID                                 : S_TEXT/UTF8
Codec ID/Info                            : UTF-8 Plain Text
Duration                                 : 1 h 18 min
Bit rate                                 : 0 b/s
Count of elements                        : 14
Stream size                              : 379 Bytes (0%)
Title                                    : Forzados
Language                                 : Spanish
Default                                  : Yes
Forced                                   : Yes

Text #3
ID                                       : 6
Format                                   : UTF-8
Codec ID                                 : S_TEXT/UTF8
Codec ID/Info                            : UTF-8 Plain Text
Duration                                 : 1 h 35 min
Bit rate                                 : 83 b/s
Count of elements                        : 1653
Stream size                              : 58.3 KiB (0%)
Language                                 : Spanish
Default                                  : No
Forced                                   : No

Menu
00:00:00.000                             : en:Studio Logos
00:00:28.000                             : en:Danny and Wheeler promote Minotaur energy drinks, Opening Credits
00:03:31.000                             : en:The office celebrates Danny's 10 years at the company
00:05:36.000                             : en:Danny gets in an argument
00:06:53.000                             : en:Danny and Wheeler argue
00:07:55.000                             : en:Beth breaks up with Danny
00:09:39.000                             : en:Danny has a melt-down
00:10:52.000                             : en:Danny wrecks the Minotaur
00:12:15.000                             : en:Beth gets Danny and Wheeler community service
00:13:33.000                             : en:Danny and Wheeler start at Sturdy Wings
00:18:03.000                             : en:Danny and Wheeler meet their littles
00:21:23.000                             : en:Danny and Wheeler decide to mentor the kids
00:22:04.000                             : en:Danny and Wheeler try to entertain their littles
00:23:43.000                             : en:Danny and Augie go to LAIRE
00:26:02.000                             : en:Ronnie takes Wheeler's car on a joy ride
00:28:15.000                             : en:Danny and Wheeler drop off the kids
00:30:10.000                             : en:Beth moves out
00:31:32.000                             : en:Wheeler picks up Ronnie and talks to Karen
00:32:45.000                             : en:Danny meets Augie's parents
00:34:15.000                             : en:Dannie and Augie go to LAIRE again
00:35:46.000                             : en:Wheeler introduces Ronnie to KISS
00:37:26.000                             : en:Danny and Wheeler get yelled at by Sweeny
00:39:45.000                             : en:Danny and Wheeler set up a campsite
00:40:45.000                             : en:Wheeler teaches Ronnie about boobie-watching
00:41:55.000                             : en:Connie comes on to Wheeler at the campfire
00:44:18.000                             : en:Augie makes Danny an emblem
00:47:10.000                             : en:Wheeler wanders around high on Ambien
00:48:15.000                             : en:Augie and Ronnie vouch for Danny and Wheeler
00:49:17.000                             : en:Danny and Wheeler start to bond with their littles
00:51:13.000                             : en:Augie gets Danny to call Beth
00:52:13.000                             : en:Beth yells at Danny
00:53:58.000                             : en:Wheeler and Danny hang out with their littles
00:54:55.000                             : en:Danny plays LAIRE for the first time
00:57:15.000                             : en:Danny and Augie get banned from LAIRE
00:59:17.000                             : en:Wheeler takes Ronnie to a party
01:00:42.000                             : en:Danny goes to dinner at Augie's and Wheeler hooks up at a party
01:02:14.000                             : en:Danny calls out Augie's parents
01:05:23.000                             : en:Wheeler can't find Ronnie
01:06:00.000                             : en:Danny and Wheeler get kicked out of the program
01:07:40.000                             : en:Danny and Wheeler get into a fight
01:09:00.000                             : en:The guys are sad from their falling out
01:10:36.000                             : en:Danny apologizes to King Argotron
01:13:21.000                             : en:Wheeler apologizes to Karen and Ronnie
01:15:10.000                             : en:Danny sneaks Augie out of his house for LAIRE
01:17:00.000                             : en:Danny gets help from Wheeler and friends for LAIRE
01:18:30.000                             : en:The rules are explained
01:20:33.000                             : en:The battle begins
01:22:28.000                             : en:Wheeler and Danny are missing their court appearance while playing LAIRE
01:25:50.000                             : en:Danny and Augie plan their attack on King Argotron
01:30:36.000                             : en:Danny wins Beth back and everyone celebrates
01:34:46.000                             : en:End Credits

 

Download Links

CONTRASEÑA PARA DESCOMPRIMIR

APORTES NUEVOS

cinemaniahdd.com

APORTES VIEJOS

CinemaniaHD.org

COMPRA O RENUEVA TU PREMIUM DE UPLOADED DESDE EL SIGUIENTE LINK:

http://ul.to/ref/9821430

SI GUSTAS PUEDES SEGUIRNOS EN LAS REDES SOCIALES

Facebook

Twitter

Post Relacionados