Vacaciones de navidad de Grisworld (1989) HD 1080p Latino

Descargar Vacaciones de navidad de Grisworld (1989) HD 1080p Latino, Mega, Google Drive, Torrent. Clark Griswold, movido por un generoso y sentimental espíritu navideño, quiere sorprender a toda su familia con una gran fiesta. La suerte no suele acompañarlo y esta vez no va a ser diferente… Una sucesión de disparatados desastres convertirán la esperadísima sorpresa de Clark en un verdadero caos.
Audio Español Latino AC3 1.0 Buray – Castellano AC3 2.0 Bluray – Ingles AC3 2.0 Bluray



Titulo original National Lampoon's Christmas Vacation
Audio Se especifica abajo de la Sinopsis
Calidad: 1080p Resolucion: 1920x1080p Formato: MKV
Encoder: Chesse92 Peso: 2.92 GiB Duracion: 1h 37m
Subtitulos: Español Latino SRT
  • No hay video embed

National Lamp Christmas Vacation (1989) 1080p Latino.mkv
Format: Matroska
Format version: Version 4
File size : 2.92 GiB
Duration: 1 h 37 min
Overall bit rate: 4 307 kb/s
Movie name: CinemaniaHDD.Net
Encoded date: UTC 2018-12-28 02:44:41
Writing application : mkvmerge v28.2.0 ('The Awakening') 64-bit
Writing library : libebml v1.3.6 + libmatroska v1.4.9

Video
ID: 1
Format: AVC
Format/Info : Advanced Video Codec
Format profile: High@L4.1
Format settings : CABAC / 4 Ref Frames
Format settings, CABAC: Yes
Format settings, ReFrames : 4 frames
Codec ID: V_MPEG4/ISO/AVC
Duration: 1 h 37 min
Bit rate: 3 500 kb/s
Width : 1 920 pixels
Height: 1 080 pixels
Display aspect ratio: 16:9
Frame rate mode : Constant
Frame rate: 23.976 (24000/1001) FPS
Color space : YUV
Chroma subsampling: 4:2:0
Bit depth : 8 bits
Scan type : Progressive
Bits/(Pixel*Frame): 0.070
Stream size : 2.35 GiB (80%)
Title : HD1080p [Bluray]
Writing library : x264 core 155 r2901 7d0ff22
Encoding settings : cabac=1 / ref=4 / deblock=1:0:0 / analyse=0x3:0x113 / me=hex / subme=8 / psy=1 / psy_rd=1.00:0.00 / mixed_ref=1 / me_range=16 / chroma_me=1 / trellis=2 / 8x8dct=1 / cqm=0 / deadzone=21,11 / fast_pskip=1 / chroma_qp_offset=-2 / threads=34 / lookahead_threads=5 / sliced_threads=0 / nr=0 / decimate=1 / interlaced=0 / bluray_compat=0 / constrained_intra=0 / bframes=3 / b_pyramid=2 / b_adapt=1 / b_bias=0 / direct=3 / weightb=1 / open_gop=0 / weightp=2 / keyint=240 / keyint_min=24 / scenecut=40 / intra_refresh=0 / rc_lookahead=50 / rc=abr / mbtree=1 / bitrate=3500 / ratetol=1.0 / qcomp=0.60 / qpmin=0 / qpmax=69 / qpstep=4 / vbv_maxrate=62500 / vbv_bufsize=78125 / nal_hrd=none / filler=0 / ip_ratio=1.40 / aq=1:1.00
Default : Yes
Forced: No
Color range : Limited
Color primaries : BT.709
Transfer characteristics: BT.709
Matrix coefficients : BT.709

Audio #1
ID: 2
Format: AC-3
Format/Info : Audio Coding 3
Commercial name : Dolby Digital
Codec ID: A_AC3
Duration: 1 h 37 min
Bit rate mode : Constant
Bit rate: 256 kb/s
Channel(s): 1 channel
Channel layout: C
Sampling rate : 48.0 kHz
Frame rate: 31.250 FPS (1536 SPF)
Bit depth : 16 bits
Compression mode: Lossy
Stream size : 178 MiB (6%)
Title : AC3_1.0_Bluray_Lat
Language: Spanish
Service kind: Complete Main
Default : Yes
Forced: No

Audio #2
ID: 3
Format: AC-3
Format/Info : Audio Coding 3
Commercial name : Dolby Digital
Codec ID: A_AC3
Duration: 1 h 37 min
Bit rate mode : Constant
Bit rate: 256 kb/s
Channel(s): 2 channels
Channel layout: L R
Sampling rate : 48.0 kHz
Frame rate: 31.250 FPS (1536 SPF)
Bit depth : 16 bits
Compression mode: Lossy
Stream size : 178 MiB (6%)
Title : AC3_2.0_Bluray_Cast
Language: Spanish
Service kind: Complete Main
Default : No
Forced: No

Audio #3
ID: 4
Format: AC-3
Format/Info : Audio Coding 3
Commercial name : Dolby Digital
Codec ID: A_AC3
Duration: 1 h 37 min
Bit rate mode : Constant
Bit rate: 256 kb/s
Channel(s): 2 channels
Channel layout: L R
Sampling rate : 48.0 kHz
Frame rate: 31.250 FPS (1536 SPF)
Bit depth : 16 bits
Compression mode: Lossy
Stream size : 178 MiB (6%)
Title : AC3_2.0_Bluray_Eng
Language: English
Service kind: Complete Main
Default : No
Forced: No

Text #1
ID: 5
Format: PGS
Muxing mode : zlib
Codec ID: S_HDMV/PGS
Codec ID/Info : Picture based subtitle format used on BDs/HD-DVDs
Duration: 1 h 36 min
Bit rate: 54.5 kb/s
Count of elements : 1825
Stream size : 37.6 MiB (1%)
Title : Sub_Esp [PGS]
Language: Spanish
Default : No
Forced: No

Text #2
ID: 6
Format: PGS
Muxing mode : zlib
Codec ID: S_HDMV/PGS
Codec ID/Info : Picture based subtitle format used on BDs/HD-DVDs
Duration: 1 h 36 min
Bit rate: 48.6 kb/s
Count of elements : 1883
Stream size : 33.6 MiB (1%)
Title : Sub_Esp [PGS]
Language: Spanish
Default : No
Forced: No

Text #3
ID: 7
Format: PGS
Muxing mode : zlib
Codec ID: S_HDMV/PGS
Codec ID/Info : Picture based subtitle format used on BDs/HD-DVDs
Duration: 1 h 33 min
Bit rate: 70.7 kb/s
Count of elements : 2008
Stream size : 47.5 MiB (2%)
Title : Sub_Eng [PGS]
Language: English
Default : No
Forced: No

Menu
00:00:00.000: :Chapter 1
00:02:39.493: :Chapter 2
00:07:01.046: :Chapter 3
00:10:51.151: :Chapter 4
00:12:41.678: :Chapter 5
00:14:55.561: :Chapter 6
00:17:31.717: :Chapter 7
00:19:31.921: :Chapter 8
00:29:45.492: :Chapter 9
00:35:42.974: :Chapter 10
00:41:37.161: :Chapter 11
00:44:41.304: :Chapter 12
00:47:23.799: :Chapter 13
00:48:36.414: :Chapter 14
00:51:28.627: :Chapter 15
00:57:28.987: :Chapter 16
00:59:43.580: :Chapter 17
01:01:42.365: :Chapter 18
01:04:16.519: :Chapter 19
01:07:08.608: :Chapter 20
01:10:22.677: :Chapter 21
01:11:59.232: :Chapter 22
01:16:28.918: :Chapter 23
01:18:38.672: :Chapter 24
01:22:31.989: :Chapter 25
01:25:11.565: :Chapter 26
01:28:38.480: :Chapter 27
01:31:19.808: :Chapter 28
01:33:50.708: :Chapter 29

Download Links

CONTRASEÑA PARA DESCOMPRIMIR

APORTES NUEVOS

cinemaniahdd.com

APORTES VIEJOS

CinemaniaHD.org

COMPRA O RENUEVA TU PREMIUM DE UPLOADED DESDE EL SIGUIENTE LINK:

http://ul.to/ref/9821430

SI GUSTAS PUEDES SEGUIRNOS EN LAS REDES SOCIALES

Facebook

Twitter

Post Relacionados