Van Helsing (2004) Full 1080p Latino

Siglo XIX. En medio de los montes de los Cárpatos está la misteriosa y mítica Transilvania, donde el mal siempre está presente, el peligro aparece cuando el sol se pone… y donde toman forma los monstruos que habitan las pesadillas de los hombres.



Titulo original Van Helsing
Audio Español Latino DTS 5.1 BLURAY - Ingles DTS 5.1 BLURAY
Calidad: Full 1080p Resolucion: 1920x1080p Formato: MKV
Encoder: Dracarys Peso: 9.41 GiB Duracion: 2h 11m
Subtitulos: Español Latino PGS - Ingles PGS
  • No hay video embed

Format                                 : Matroska
Format version                         : Version 4 / Version 2
File size                              : 9.41 GiB
Duration                               : 2 h 11 min
Overall bit rate                       : 10.2 Mb/s
Movie name                             : CinemaniaHDD.net
Encoded date                           : UTC 2018-12-05 13:00:27 / UTC 2018-11-28T00:26:08Z
Writing application                    : mkvmerge v15.0.0 ('Duel with the Devil') 64-bit
Writing library                        : libebml v1.3.5 + libmatroska v1.4.5 / Lavf57.7.2

Video
ID                                     : 1
Format                                 : AVC
Format/Info                            : Advanced Video Codec
Format profile                         : High@L4.1
Format settings                        : CABAC / 4 Ref Frames
Format settings, CABAC                 : Yes
Format settings, RefFrames             : 4 frames
Codec ID                               : V_MPEG4/ISO/AVC
Duration                               : 2 h 11 min
Bit rate                               : 7 759 kb/s
Width                                  : 1 920 pixels
Height                                 : 1 080 pixels
Display aspect ratio                   : 16:9
Frame rate mode                        : Constant
Frame rate                             : 23.976 (24000/1001) FPS
Color space                            : YUV
Chroma subsampling                     : 4:2:0
Bit depth                              : 8 bits
Scan type                              : Progressive
Bits/(Pixel*Frame)                     : 0.156
Stream size                            : 7.13 GiB (76%)
Writing library                        : x264 core 148 r2708 86b7198
Encoding settings                      : cabac=1 / ref=4 / deblock=1:0:0 / analyse=0x3:0x133 / me=esa / subme=10 / psy=1 / psy_rd=1.00:0.00 / mixed_ref=1 / me_range=24 / chroma_me=1 / trellis=2 / 8x8dct=1 / cqm=0 / deadzone=21,11 / fast_pskip=1 / chroma_qp_offset=-2 / threads=34 / lookahead_threads=5 / sliced_threads=0 / nr=0 / decimate=1 / interlaced=0 / bluray_compat=0 / constrained_intra=0 / bframes=8 / b_pyramid=2 / b_adapt=2 / b_bias=0 / direct=3 / weightb=1 / open_gop=0 / weightp=2 / keyint=240 / keyint_min=24 / scenecut=40 / intra_refresh=0 / rc_lookahead=60 / rc=crf / mbtree=1 / crf=20.0 / qcomp=0.60 / qpmin=0 / qpmax=69 / qpstep=4 / vbv_maxrate=62500 / vbv_bufsize=78125 / crf_max=0.0 / nal_hrd=none / filler=0 / ip_ratio=1.40 / aq=1:1.00
Language                               : English
Default                                : Yes
Forced                                 : No
Color range                            : Limited
Color primaries                        : BT.709
Transfer characteristics               : BT.709
Matrix coefficients                    : BT.709
Statistics Tags Issue                  : mkvmerge v15.0.0 ('Duel with the Devil') 64-bit 2018-12-05 13:00:27 / mkvmerge v15.0.0 ('Duel with the Devil') 64-bit 2018-12-05 13:00:27 / UTC 2018-11-28T00:26:08Z
FromStats_BitRate                      : 7946938
FromStats_Duration                     : 02:11:37.932000000
FromStats_FrameCount                   : 189361
FromStats_StreamSize                   : 7845547550

Audio #1
ID                                     : 2
Format                                 : DTS
Format/Info                            : Digital Theater Systems
Mode                                   : 16
Format settings, Endianness            : Big
Codec ID                               : A_DTS
Duration                               : 2 h 11 min
Bit rate mode                          : Constant
Bit rate                               : 768 kb/s
Channel(s)                             : 6 channels
Channel positions                      : Front: L C R, Side: L R, LFE
Sampling rate                          : 48.0 kHz
Frame rate                             : 93.750 FPS (512 SPF)
Bit depth                              : 24 bits
Compression mode                       : Lossy
Stream size                            : 723 MiB (8%)
Language                               : Spanish
Default                                : Yes
Forced                                 : No
Statistics Tags Issue                  : mkvmerge v15.0.0 ('Duel with the Devil') 64-bit 2018-12-05 13:00:27 / mkvmerge v15.0.0 ('Duel with the Devil') 64-bit 2018-12-05 13:00:27 / UTC 2018-11-28T00:26:08Z
FromStats_BitRate                      : 767999
FromStats_Duration                     : 02:11:37.931000000
FromStats_FrameCount                   : 740431
FromStats_StreamSize                   : 758201344

Audio #2
ID                                     : 3
Format                                 : DTS
Format/Info                            : Digital Theater Systems
Mode                                   : 16
Format settings, Endianness            : Big
Codec ID                               : A_DTS
Duration                               : 2 h 11 min
Bit rate mode                          : Constant
Bit rate                               : 1 509 kb/s
Channel(s)                             : 6 channels
Channel positions                      : Front: L C R, Side: L R, LFE
Sampling rate                          : 48.0 kHz
Frame rate                             : 93.750 FPS (512 SPF)
Bit depth                              : 24 bits
Compression mode                       : Lossy
Stream size                            : 1.39 GiB (15%)
Language                               : English
Default                                : No
Forced                                 : No
Statistics Tags Issue                  : mkvmerge v15.0.0 ('Duel with the Devil') 64-bit 2018-12-05 13:00:27 / mkvmerge v15.0.0 ('Duel with the Devil') 64-bit 2018-12-05 13:00:27 / UTC 2018-11-28T00:26:08Z
FromStats_BitRate                      : 1508999
FromStats_Duration                     : 02:11:37.931000000
FromStats_FrameCount                   : 740431
FromStats_StreamSize                   : 1489747172

Text #1
ID                                     : 4
Format                                 : PGS
Muxing mode                            : zlib
Codec ID                               : S_HDMV/PGS
Codec ID/Info                          : Picture based subtitle format used on BDs/HD-DVDs
Language                               : English
Default                                : No
Forced                                 : No
Statistics Tags Issue                  : mkvmerge v15.0.0 ('Duel with the Devil') 64-bit 2018-12-05 13:00:27 / mkvmerge v15.0.0 ('Duel with the Devil') 64-bit 2018-12-05 13:00:27 / UTC 2018-11-28T00:26:08Z
FromStats_BitRate                      : 24778
FromStats_Duration                     : 01:58:49.872000000
FromStats_FrameCount                   : 2215
FromStats_StreamSize                   : 22083367

Text #2
ID                                     : 5
Format                                 : PGS
Muxing mode                            : zlib
Codec ID                               : S_HDMV/PGS
Codec ID/Info                          : Picture based subtitle format used on BDs/HD-DVDs
Language                               : Spanish
Default                                : No
Forced                                 : No
Statistics Tags Issue                  : mkvmerge v15.0.0 ('Duel with the Devil') 64-bit 2018-12-05 13:00:27 / mkvmerge v15.0.0 ('Duel with the Devil') 64-bit 2018-12-05 13:00:27 / UTC 2018-11-28T00:26:08Z
FromStats_BitRate                      : 21094
FromStats_Duration                     : 02:01:31.368000000
FromStats_FrameCount                   : 1874
FromStats_StreamSize                   : 19225800

Text #3
ID                                     : 6
Format                                 : PGS
Muxing mode                            : zlib
Codec ID                               : S_HDMV/PGS
Codec ID/Info                          : Picture based subtitle format used on BDs/HD-DVDs
Title                                  : Forzados
Language                               : Spanish
Default                                : No
Forced                                 : No
Statistics Tags Issue                  : mkvmerge v15.0.0 ('Duel with the Devil') 64-bit 2018-12-05 13:00:27 / mkvmerge v15.0.0 ('Duel with the Devil') 64-bit 2018-12-05 13:00:27 / UTC 2018-11-28T00:26:08Z
FromStats_BitRate                      : 163
FromStats_Duration                     : 02:01:31.368000000
FromStats_FrameCount                   : 20
FromStats_StreamSize                   : 148856

Menu
00:00:00.000                           : :Chapter 1
00:07:49.219                           : :Chapter 2
00:13:42.613                           : :Chapter 3
00:20:14.505                           : :Chapter 4
00:23:12.725                           : :Chapter 5
00:33:58.036                           : :Chapter 6
00:38:22.258                           : :Chapter 7
00:40:34.265                           : :Chapter 8
00:48:41.794                           : :Chapter 9
00:53:18.862                           : :Chapter 10
01:02:07.057                           : :Chapter 11
01:04:31.785                           : :Chapter 12
01:08:42.952                           : :Chapter 13
01:09:54.982                           : :Chapter 14
01:14:17.703                           : :Chapter 15
01:18:55.314                           : :Chapter 16
01:23:57.866                           : :Chapter 17
01:29:19.104                           : :Chapter 18
01:31:11.341                           : :Chapter 19
01:37:30.970                           : :Chapter 20
01:40:34.529                           : :Chapter 21
01:43:46.345                           : :Chapter 22
01:45:56.809                           : :Chapter 23
01:50:21.198                           : :Chapter 24
01:55:16.076                           : :Chapter 25
01:57:08.396                           : :Chapter 26
01:58:42.240                           : :Chapter 27
02:02:01.189                           : :Chapter 28

 

Download Links

CONTRASEÑA PARA DESCOMPRIMIR

APORTES NUEVOS

cinemaniahdd.com

APORTES VIEJOS

CinemaniaHD.org

COMPRA O RENUEVA TU PREMIUM DE UPLOADED DESDE EL SIGUIENTE LINK:

http://ul.to/ref/9821430

SI GUSTAS PUEDES SEGUIRNOS EN LAS REDES SOCIALES

Facebook

Twitter

Post Relacionados