Vikingos (2016) Cuarta Temporada [Volumen 1] [Extended] Full 1080p Latino

Los vikingos siguen las aventuras de Ragnar Lothbrok, el héroe más grande de su época. La serie cuenta las sagas de la banda de Ragnar de hermanos vikingos y su familia, mientras se eleva para convertirse en el rey de las tribus vikingas. Además de ser un guerrero audaz, Ragnar encarna las tradiciones nórdicas de devoción a los dioses. La leyenda dice que él era un descendiente directo de Odín, el dios de la guerra y los guerreros.



Titulo original Vikings
Audio Español Latino AC3 5.1 BLURAY - Ingles DTS 5.1 BLURAY
Calidad: Full 1080p Resolucion: 1920x1080p Formato: MKV
Encoder: Dracarys Peso: 1.70 GiB X Capitulo Duracion: 0h 44m
Subtitulos: Español Latino PGS - Ingles PGS
  • No hay video embed

Format                                   : Matroska
Format version                           : Version 4 / Version 2
File size                                : 1.79 GiB
Duration                                 : 47 min 9 s
Overall bit rate                         : 5 426 kb/s
Movie name                               : CinemaniaHDD.net
Encoded date                             : UTC 2018-10-21 04:38:11 / UTC 2018-10-19T07:35:18Z
Writing application                      : mkvmerge v15.0.0 ('Duel with the Devil') 64-bit
Writing library                          : libebml v1.3.5 + libmatroska v1.4.5 / Lavf57.7.2

Video
ID                                       : 1
Format                                   : AVC
Format/Info                              : Advanced Video Codec
Format profile                           : High@L4.1
Format settings                          : CABAC / 4 Ref Frames
Format settings, CABAC                   : Yes
Format settings, RefFrames               : 4 frames
Codec ID                                 : V_MPEG4/ISO/AVC
Duration                                 : 47 min 9 s
Bit rate                                 : 3 500 kb/s
Width                                    : 1 920 pixels
Height                                   : 1 080 pixels
Display aspect ratio                     : 16:9
Frame rate mode                          : Constant
Frame rate                               : 23.976 (24000/1001) FPS
Color space                              : YUV
Chroma subsampling                       : 4:2:0
Bit depth                                : 8 bits
Scan type                                : Progressive
Bits/(Pixel*Frame)                       : 0.070
Stream size                              : 1.11 GiB (62%)
Writing library                          : x264 core 148 r2708 86b7198
Encoding settings                        : cabac=1 / ref=4 / deblock=1:0:0 / analyse=0x3:0x113 / me=umh / subme=8 / psy=1 / psy_rd=1.00:0.00 / mixed_ref=1 / me_range=16 / chroma_me=1 / trellis=1 / 8x8dct=1 / cqm=0 / deadzone=21,11 / fast_pskip=1 / chroma_qp_offset=-2 / threads=34 / lookahead_threads=5 / sliced_threads=0 / nr=0 / decimate=1 / interlaced=0 / bluray_compat=0 / constrained_intra=0 / bframes=3 / b_pyramid=2 / b_adapt=2 / b_bias=0 / direct=3 / weightb=1 / open_gop=0 / weightp=2 / keyint=240 / keyint_min=24 / scenecut=40 / intra_refresh=0 / rc_lookahead=50 / rc=abr / mbtree=1 / bitrate=3500 / ratetol=1.0 / qcomp=0.60 / qpmin=0 / qpmax=69 / qpstep=4 / vbv_maxrate=62500 / vbv_bufsize=78125 / nal_hrd=none / filler=0 / ip_ratio=1.40 / aq=1:1.00
Language                                 : English
Default                                  : Yes
Forced                                   : No
Color range                              : Limited
Color primaries                          : BT.709
Transfer characteristics                 : BT.709
Matrix coefficients                      : BT.709
Statistics Tags Issue                    : mkvmerge v15.0.0 ('Duel with the Devil') 64-bit 2018-10-21 04:38:11 / mkvmerge v15.0.0 ('Duel with the Devil') 64-bit 2018-10-21 04:38:11 / UTC 2018-10-19T07:35:18Z
FromStats_BitRate                        : 3451889
FromStats_Duration                       : 00:47:09.333000000
FromStats_FrameCount                     : 67832
FromStats_StreamSize                     : 1220818117

Audio #1
ID                                       : 2
Format                                   : AC-3
Format/Info                              : Audio Coding 3
Format settings, Endianness              : Big
Codec ID                                 : A_AC3
Duration                                 : 47 min 9 s
Bit rate mode                            : Constant
Bit rate                                 : 448 kb/s
Channel(s)                               : 6 channels
Channel positions                        : Front: L C R, Side: L R, LFE
Sampling rate                            : 48.0 kHz
Frame rate                               : 31.250 FPS (1536 SPF)
Bit depth                                : 16 bits
Compression mode                         : Lossy
Stream size                              : 151 MiB (8%)
Language                                 : Spanish
Service kind                             : Complete Main
Default                                  : Yes
Forced                                   : No
Statistics Tags Issue                    : mkvmerge v15.0.0 ('Duel with the Devil') 64-bit 2018-10-21 04:38:11 / mkvmerge v15.0.0 ('Duel with the Devil') 64-bit 2018-10-21 04:38:11 / UTC 2018-10-19T07:35:18Z
FromStats_BitRate                        : 448000
FromStats_Duration                       : 00:47:09.344000000
FromStats_FrameCount                     : 88417
FromStats_StreamSize                     : 158443264

Audio #2
ID                                       : 3
Format                                   : DTS
Format/Info                              : Digital Theater Systems
Mode                                     : 16
Format settings, Endianness              : Big
Codec ID                                 : A_DTS
Duration                                 : 47 min 9 s
Bit rate mode                            : Constant
Bit rate                                 : 1 509 kb/s
Channel(s)                               : 6 channels
Channel positions                        : Front: L C R, Side: L R, LFE
Sampling rate                            : 48.0 kHz
Frame rate                               : 93.750 FPS (512 SPF)
Bit depth                                : 24 bits
Compression mode                         : Lossy
Stream size                              : 509 MiB (28%)
Language                                 : English
Default                                  : No
Forced                                   : No
Statistics Tags Issue                    : mkvmerge v15.0.0 ('Duel with the Devil') 64-bit 2018-10-21 04:38:11 / mkvmerge v15.0.0 ('Duel with the Devil') 64-bit 2018-10-21 04:38:11 / UTC 2018-10-19T07:35:18Z
FromStats_BitRate                        : 1508999
FromStats_Duration                       : 00:47:09.323000000
FromStats_FrameCount                     : 265249
FromStats_StreamSize                     : 533680988

Text #1
ID                                       : 4
Format                                   : PGS
Muxing mode                              : zlib
Codec ID                                 : S_HDMV/PGS
Codec ID/Info                            : Picture based subtitle format used on BDs/HD-DVDs
Language                                 : English
Default                                  : No
Forced                                   : No
Statistics Tags Issue                    : mkvmerge v15.0.0 ('Duel with the Devil') 64-bit 2018-10-21 04:38:11 / mkvmerge v15.0.0 ('Duel with the Devil') 64-bit 2018-10-21 04:38:11 / UTC 2018-10-19T07:35:18Z
FromStats_BitRate                        : 26921
FromStats_Duration                       : 00:45:47.430000000
FromStats_FrameCount                     : 1046
FromStats_StreamSize                     : 9245625

Text #2
ID                                       : 5
Format                                   : PGS
Muxing mode                              : zlib
Codec ID                                 : S_HDMV/PGS
Codec ID/Info                            : Picture based subtitle format used on BDs/HD-DVDs
Language                                 : Spanish
Default                                  : No
Forced                                   : No
Statistics Tags Issue                    : mkvmerge v15.0.0 ('Duel with the Devil') 64-bit 2018-10-21 04:38:11 / mkvmerge v15.0.0 ('Duel with the Devil') 64-bit 2018-10-21 04:38:11 / UTC 2018-10-19T07:35:18Z
FromStats_BitRate                        : 19382
FromStats_Duration                       : 00:45:52.561000000
FromStats_FrameCount                     : 816
FromStats_StreamSize                     : 6669014

Menu
00:00:00.000                             : :Chapter 1
00:04:01.616                             : :Chapter 2
00:07:30.450                             : :Chapter 3
00:13:29.939                             : :Chapter 4
00:15:54.250                             : :Chapter 5
00:19:10.288                             : :Chapter 6
00:24:28.295                             : :Chapter 7
00:29:16.907                             : :Chapter 8
00:36:45.666                             : :Chapter 9
00:37:42.973                             : :Chapter 10
00:40:09.286                             : :Chapter 11
00:41:43.525                             : :Chapter 12

 

Download Links

CONTRASEÑA PARA DESCOMPRIMIR

APORTES NUEVOS

cinemaniahdd.com

APORTES VIEJOS

CinemaniaHD.org

COMPRA O RENUEVA TU PREMIUM DE UPLOADED DESDE EL SIGUIENTE LINK:

http://ul.to/ref/9821430

SI GUSTAS PUEDES SEGUIRNOS EN LAS REDES SOCIALES

Facebook

Twitter

Post Relacionados